<?xml version="1.0" standalone="no"?>
<!DOCTYPE svg PUBLIC "-//W3C//DTD SVG 1.1//EN" "http://www.w3.org/Graphics/SVG/1.1/DTD/svg11.dtd" >
<svg xmlns="http://www.w3.org/2000/svg">
<metadata>Generated by IcoMoon</metadata>
<defs>
<font id="Laravel-Orchid" horiz-adv-x="1024">
<font-face units-per-em="1024" ascent="960" descent="-64" />
<missing-glyph horiz-adv-x="1024" />
<glyph unicode="&#x20;" horiz-adv-x="512" d="" />
<glyph unicode="&#xe900;" glyph-name="action-redo" d="M33.92 17.664c0.32 0 0.704 0 1.088 0.032 16.192 0.544 26.4 13.088 27.776 29.216 1.088 11.872 32.96 299.104 481.248 298.784l1.024-183.648c0-12.384 7.136-23.648 18.336-28.928 11.072-5.312 24.448-3.68 33.952 4.224l414.976 343.776c7.456 6.112 11.712 15.2 11.68 24.768s-4.352 18.688-11.776 24.768l-414.944 340.576c-9.568 7.808-22.784 9.312-33.952 4.096-11.168-5.312-18.304-16.576-18.304-28.896l-1.024-179.648c-185.952-5.888-329.984-65.696-423.328-174.944-151.936-177.792-118.016-436.16-116.448-446.912 2.368-15.68 13.856-27.2 29.632-27.2zM577.056 410.176h-0.064c-320.224-0.192-442.592-108.32-512.48-203.84 10.24 76.48 40.064 168.736 104.992 244.032 86.336 100.096 225.44 152.864 407.552 152.864 17.664 0 32 14.304 32 32v143.776l332.448-273.344-332.448-275.904v148.384c0 8.48-3.36 16.64-9.408 22.656-5.984 5.984-14.112 9.376-22.592 9.376z" />
<glyph unicode="&#xe901;" glyph-name="action-undo" d="M990.048 17.664c-0.352 0-0.736 0-1.088 0.032-16.192 0.544-26.4 13.088-27.776 29.216-1.088 11.872-33.952 299.104-482.24 298.784v-183.648c0-12.384-7.136-23.648-18.336-28.928-11.104-5.312-24.448-3.68-33.984 4.224l-414.976 343.776c-7.456 6.112-11.712 15.2-11.68 24.768s4.352 18.688 11.776 24.768l414.944 340.576c9.568 7.808 22.784 9.312 33.952 4.096 11.136-5.312 18.304-16.576 18.304-28.896v-179.648c185.952-5.888 331.008-65.696 424.352-174.976 151.936-177.792 118.016-436.16 116.448-446.912-2.368-15.648-13.856-27.168-29.664-27.168zM446.944 410.176h0.064c320.224-0.192 442.592-108.32 512.448-203.808-10.24 76.48-40.064 168.736-105.024 244.032-86.336 100.096-225.44 152.864-407.52 152.864-17.696 0-32 14.304-32 32v143.776l-332.448-273.376 332.448-275.904v148.384c0 8.48 3.36 16.64 9.408 22.656 6.016 5.984 14.112 9.376 22.624 9.376z" />
<glyph unicode="&#xe902;" glyph-name="actual-size" horiz-adv-x="1021" d="M746.609 640.052h146.35c17.62 0 31.902-14.314 31.902-31.998 0-17.652-11.586-30.169-29.238-30.169h-216.701c-3.081-0.931-6.162-1.829-9.339-1.829-8.184 0-16.336 3.145-22.562 9.372-7.831 7.863-10.174 18.711-8.152 28.853v220.359c0 17.684 13.062 29.43 30.714 29.43 17.62 0 31.902-14.314 31.902-31.998v-146.767l264.649 265.42c12.453 12.485 32.64 12.485 45.125 0 12.453-12.517 12.453-32.768 0-45.253l-264.649-265.42zM382.371 64.024c0-17.684-14.282-31.998-31.902-31.998-17.652 0-31.902 14.314-31.902 31.998v146.767l-264.649-265.388c-6.226-6.258-14.41-9.404-22.562-9.404s-16.336 3.145-22.562 9.404c-12.453 12.485-12.453 32.736 0 45.253l264.649 265.388h-146.35c-17.652 0-31.902 14.314-31.902 31.998s14.25 31.998 31.902 31.998h223.376c0 0 0.032 0 0.032 0 4.14 0 8.28-0.867 12.164-2.471 7.799-3.242 14.025-9.468 17.267-17.299 1.605-3.916 2.439-8.056 2.439-12.228v-224.018zM350.47 576.056c-3.177 0-6.29 0.899-9.339 1.829h-215.77c-17.652 0-30.169 12.517-30.169 30.169 0 17.684 14.25 31.998 31.902 31.998h146.35l-264.649 265.42c-12.453 12.485-12.453 32.736 0 45.253 12.453 12.485 32.672 12.485 45.125 0l264.649-265.42v146.767c0 17.684 14.25 31.998 31.902 31.998 17.62 0 31.902-14.314 31.902-31.998v-223.986c0-8.216-3.113-16.4-9.339-22.659-6.226-6.226-14.41-9.372-22.562-9.372zM647.47 310.99c5.488 5.616 13.191 9.051 22.113 9.051h223.376c17.62 0 31.902-14.314 31.902-31.998s-14.282-31.998-31.902-31.998h-146.35l264.649-265.388c12.453-12.517 12.453-32.768 0-45.253-6.258-6.258-14.41-9.404-22.562-9.404-8.184 0-16.336 3.145-22.562 9.404l-264.649 265.388v-146.767c0-17.684-14.282-31.998-31.902-31.998-17.652 0-30.714 14.667-30.714 32.351v217.471c-2.022 10.11 0.321 20.958 8.152 28.821 0.128 0.128 0.321 0.16 0.449 0.321z" />
<glyph unicode="&#xe903;" glyph-name="anchor" d="M1021.024 228.576l-82.272 151.296c-0.128 0.192-0.096 0.384-0.224 0.608l-5.856 10.144c-3.264 5.6-8.448 9.216-14.208 10.592-5.696 1.408-12 0.544-17.408-2.976l-9.856-6.336c-0.192-0.096-0.32-0.288-0.512-0.416l-145.6-98.336c-10.88-7.008-14.432-21.664-7.936-32.928l6.528-7.2c6.496-11.168 21.28-11.648 32.16-4.64l87.040 59.168c-20.608-166.016-154.72-293.376-318.976-308.192v641.6h128.064c17.664 0 32 14.336 32 32s-14.336 32-32 32h-129.44c-0.256 0.832-0.448 1.664-0.768 2.464 57.12 13.28 99.68 64.352 99.68 125.536 0 71.264-57.76 129.024-129.024 129.024s-128.992-57.728-128.992-129.024c0-60.832 42.112-111.648 98.72-125.28-0.352-0.864-0.576-1.792-0.864-2.72h-129.376c-17.664 0-32-14.336-32-32s14.336-32 32-32h127.968v-641.568c-164.16 14.784-298.176 142.112-318.816 308.128l86.944-59.136c10.88-7.008 25.664-6.528 32.16 4.64l6.56 7.2c6.496 11.232 2.944 25.888-7.936 32.896l-145.6 98.304c-0.192 0.16-0.32 0.32-0.48 0.416l-9.856 6.336c-5.408 3.52-11.68 4.352-17.408 2.976s-10.912-4.992-14.176-10.592l-5.856-10.144c-0.096-0.192-0.096-0.384-0.224-0.608l-82.272-151.296c-6.496-11.168-2.944-25.856 7.936-32.896l9.12-3.424c10.88-6.976 24.256-0.64 30.752 10.528l47.904 88.96c29.376-204.736 205.12-357.824 413.28-357.824 208.064 0 383.936 153.088 413.376 357.696l47.84-88.864c6.496-11.168 19.904-17.536 30.784-10.528l9.12 3.424c10.88 7.040 14.464 21.728 7.936 32.896zM447.52 833.024c0 35.84 29.152 65.024 64.992 65.024s65.024-29.152 65.024-65.024-29.152-65.024-65.024-65.024c-35.84 0-64.992 29.184-64.992 64.992z" />
<glyph unicode="&#xe904;" glyph-name="android" d="M880 576c-44.183 0-80-35.817-80-80v0 48c0 17.673-14.327 32-32 32v0h-512c-17.673 0-32-14.327-32-32v0-48c0 44.183-35.817 80-80 80s-80-35.817-80-80v0-192c0-44.183 35.817-80 80-80s80 35.817 80 80v0-112c0-17.673 14.327-32 32-32v0h64v-144c0-44.183 35.817-80 80-80s80 35.817 80 80v0 144h64v-144c0-44.183 35.817-80 80-80s80 35.817 80 80v0 144h64c17.673 0 32 14.327 32 32v0 112c0-44.183 35.817-80 80-80s80 35.817 80 80v0 192c0 44.183-35.817 80-80 80v0zM160 304c0-8.837-7.163-16-16-16s-16 7.163-16 16v0 192c0 8.837 7.163 16 16 16s16-7.163 16-16v0zM416 16c0-8.837-7.163-16-16-16s-16 7.163-16 16v0 144h32zM624 0c-8.765 0.176-15.824 7.235-16 15.983v144.017h32v-144c-0.176-8.765-7.235-15.824-15.983-16h-0.017zM736 224h-448v288h448zM896 304c0-8.837-7.163-16-16-16s-16 7.163-16 16v0 192c0 8.837 7.163 16 16 16s16-7.163 16-16v0zM226.56 643.84c-0.151-1.167-0.237-2.518-0.237-3.888 0-8.087 3-15.474 7.948-21.108l-0.031 0.036c5.885-6.675 14.452-10.868 23.998-10.88h507.522c9.548 0.012 18.115 4.205 23.97 10.845l0.030 0.035c4.917 5.598 7.917 12.984 7.917 21.072 0 1.371-0.086 2.721-0.253 4.046l0.016-0.158c-9.814 76.392-48.291 142.316-104.113 187.745l-0.527 0.415 69.76 69.76c4.283 5.394 6.872 12.301 6.872 19.813 0 17.673-14.327 32-32 32-7.592 0-14.567-2.644-20.053-7.061l0.062 0.048-79.68-79.68c-36.721 18.306-79.977 29.049-125.736 29.12h-0.024c-52.060-0.003-100.845-14.021-142.789-38.487l1.349 0.727-88.32 88.32c-5.8 5.846-13.837 9.466-22.72 9.466s-16.92-3.619-22.718-9.463l-0.002-0.002c-5.751-5.784-9.305-13.757-9.305-22.56s3.555-16.776 9.307-22.562l81.278-81.278c-49.112-44.732-82.504-105.972-91.37-174.892l-0.15-1.428zM726.4 672h-428.8c28.739 92.848 113.829 159.126 214.4 159.126s185.661-66.278 213.976-157.539l0.424-1.587z" />
<glyph unicode="&#xe905;" glyph-name="arrow-down" d="M8.192 684.608c0 8.608 3.392 17.408 10.016 24 13.184 13.184 34.784 13.184 48 0l451.808-451.808 445.216 445.184c13.216 13.184 34.784 13.184 48 0s13.216-34.816 0-48l-469.216-469.408c-13.216-13.216-34.816-13.216-48 0l-475.808 475.808c-6.816 6.816-10.016 15.392-10.016 24.192z" />
<glyph unicode="&#xe906;" glyph-name="arrow-down-circle" d="M0 448c0-282.784 229.216-512 512-512s512 229.216 512 512c0 282.752-229.216 512-512 512s-512-229.216-512-512zM961.024 448c0-247.040-201.984-448-449.024-448s-448 200.96-448 448 200.96 448 448 448 449.024-200.96 449.024-448zM479.648 672.32v-360.448l-115.744 115.744c-12.48 12.48-32.768 12.48-45.248 0s-12.48-32.736 0-45.248l194.016-189.024 194.016 189.024c6.24 6.24 9.376 14.432 9.376 22.624s-3.136 16.384-9.376 22.624c-12.48 12.48-32.736 12.48-45.248 0l-117.76-117.76v362.432c0 17.696-14.336 32-32 32s-32.032-14.304-32.032-32z" />
<glyph unicode="&#xe907;" glyph-name="arrow-left" d="M752.16 960c8.672 0 17.568-3.424 24.224-10.112 13.344-13.344 13.344-35.136 0-48.48l-456.256-456.448 449.6-449.6c13.344-13.344 13.344-35.136 0-48.48s-35.136-13.344-48.48 0l-473.824 473.824c-13.344 13.344-13.344 35.136 0 48.48l480.48 480.704c6.656 6.656 15.552 10.112 24.224 10.112z" />
<glyph unicode="&#xe908;" glyph-name="arrow-left-circle" d="M512 960c-282.784 0-512-229.216-512-512s229.216-512 512-512c282.784 0 512 229.216 512 512s-229.216 512-512 512zM512-1.024c-247.040 0-448 201.984-448 449.024s200.96 448 448 448 448-200.96 448-448-200.96-449.024-448-449.024zM736.32 480.352h-360.448l115.744 115.744c12.48 12.48 12.48 32.768 0 45.248s-32.768 12.48-45.248 0l-189.024-193.984 189.024-194.016c6.24-6.24 14.432-9.376 22.624-9.376s16.352 3.136 22.624 9.376c12.48 12.48 12.48 32.736 0 45.248l-117.76 117.76h362.464c17.664 0 32 14.336 32 32s-14.336 32-32 32z" />
<glyph unicode="&#xe909;" glyph-name="arrow-right" d="M271.648-63.2c-8.672 0-17.568 3.424-24.224 10.112-13.344 13.344-13.344 35.136 0 48.48l456.256 456.448-449.6 449.6c-13.344 13.344-13.344 35.136 0 48.48s35.136 13.344 48.48 0l473.824-473.824c13.344-13.344 13.344-35.136 0-48.48l-480.48-480.704c-6.656-6.656-15.552-10.112-24.224-10.112z" />
<glyph unicode="&#xe90a;" glyph-name="arrow-right-circle" d="M512 960c-282.752 0-512-229.216-512-512s229.216-512 512-512c282.784 0 512 229.216 512 512s-229.216 512-512 512zM512-1.024c-247.040 0-448 201.984-448 449.024s200.96 448 448 448 448-200.96 448-448-200.96-449.024-448-449.024zM532.384 641.376c-12.48-12.48-12.48-32.768 0-45.248l115.744-115.744h-360.448c-17.696 0-32-14.336-32-32s14.304-32 32-32h362.464l-117.76-117.76c-12.48-12.48-12.48-32.736 0-45.248 6.24-6.24 14.432-9.376 22.624-9.376s16.384 3.136 22.624 9.376l189.024 194.016-189.024 194.016c-12.512 12.48-32.736 12.48-45.28 0z" />
<glyph unicode="&#xe90b;" glyph-name="arrow-up" d="M8.192 208.608c0-8.608 3.392-17.408 10.016-24 13.184-13.216 34.784-13.216 48 0l451.808 451.808 445.216-445.184c13.216-13.216 34.784-13.216 48 0s13.216 34.784 0 48l-469.216 469.408c-13.216 13.184-34.816 13.184-48 0l-475.808-475.808c-6.816-6.784-10.016-15.392-10.016-24.192z" />
<glyph unicode="&#xe90c;" glyph-name="arrow-up-circle" d="M1024 448c0 282.784-229.216 512-512 512s-512-229.216-512-512c0-282.784 229.216-512 512-512s512 229.216 512 512zM63.008 448c0 247.040 201.952 448 448.992 448s448-200.96 448-448-200.96-448-448-448-448.992 200.96-448.992 448zM544.352 223.68v360.448l115.744-115.744c12.48-12.48 32.736-12.48 45.248 0s12.48 32.768 0 45.248l-194.016 189.024-194.016-189.024c-6.24-6.24-9.376-14.432-9.376-22.624s3.136-16.352 9.376-22.624c12.48-12.48 32.768-12.48 45.248 0l117.728 117.76v-362.464c0-17.664 14.336-32 32-32s32 14.336 32 32z" />
<glyph unicode="&#xe90d;" glyph-name="badge" d="M1021.056 120.032l-187.264 346.304c19.104 43.36 29.792 91.264 29.792 141.696 0 194.304-157.504 351.808-351.808 351.808-194.336 0-351.84-157.536-351.84-351.808 0-51.648 11.232-100.64 31.168-144.768l-188.096-343.072c-6.080-11.040-5.056-24.64 2.528-34.688s20.416-14.752 32.704-11.872l160.608 36.832 54.976-153.12c4.288-11.904 15.168-20.16 27.744-21.088 0.8-0.064 1.6-0.096 2.368-0.096 11.712 0 22.592 6.432 28.192 16.864l163.712 304.96c11.808-1.216 23.808-1.824 35.936-1.824 11.104 0 22.080 0.576 32.928 1.6l167.264-305.024c5.664-10.336 16.448-16.64 28.064-16.64 0.832 0 1.664 0.032 2.496 0.096 12.544 1.024 23.36 9.248 27.616 21.088l54.976 153.12 160.64-36.832c12.32-2.976 25.024 1.824 32.64 11.808s8.64 23.52 2.688 34.592zM289.792 46.656l-40.256 112.16c-5.504 15.264-21.472 24.128-37.28 20.384l-118.784-27.264 135.392 246.976c44.576-60.256 107.936-105.696 181.44-127.808zM224.224 608.032c0 158.56 129.024 287.552 287.552 287.552s287.52-128.992 287.52-287.552-128.992-287.552-287.552-287.552c-158.56 0-287.552 129.024-287.552 287.552zM811.744 179.2c-15.872 3.744-31.776-5.12-37.28-20.352l-40.544-112.96-123.168 224.544c75.424 22.112 140.352 68.736 185.504 130.72l134.848-249.312z" />
<glyph unicode="&#xe90e;" glyph-name="bag" d="M864 801.28h-191.2v61.376c0 52.96-43.072 96-96 96h-127.648c-52.96 0-96-43.040-96-96v-61.376h-193.184c-35.328 0-64-28.672-64-64v-735.968c0-35.36 28.672-64 64-64h704c35.36 0 64 28.64 64 64v735.968c0 35.328-28.64 64-64 64v0zM417.184 862.656c0 17.664 14.336 32 32 32h127.648c17.664 0 32-14.336 32-32v-61.376h-191.648v61.376zM864 1.312h-704v735.968h193.184v-65.856s-0.864-31.968 31.808-31.968c36 0 32.192 31.968 32.192 31.968v65.856h191.648v-65.856s-2.144-32.128 31.872-32.128c32 0 32.128 32.128 32.128 32.128v65.856h191.168v-735.968z" />
<glyph unicode="&#xe90f;" glyph-name="ban" d="M512 960c-282.752 0-512-229.216-512-512s229.216-512 512-512c282.784 0 512 229.216 512 512s-229.216 512-512 512zM64 448c0 112.256 41.6 214.944 110.112 293.664l631.84-631.84c-78.72-68.864-181.536-110.816-293.952-110.816-247.040 0-448 201.984-448 449.024v0zM851.008 155.2l-631.616 631.616c78.592 67.936 180.832 109.184 292.576 109.184 247.040 0 448-200.96 448-448 0-111.648-41.152-214.048-108.992-292.768z" />
<glyph unicode="&#xe910;" glyph-name="bar-chart" horiz-adv-x="992" d="M960-64h-224c-17.696 0-32 14.336-32 32v960c0 17.664 14.304 32 32 32h224c17.696 0 32-14.336 32-32v-960c0-17.664-14.304-32-32-32zM928 896h-160v-896h160v896zM608-64h-224c-17.664 0-32 14.336-32 32v448c0 17.664 14.336 32 32 32h224c17.696 0 32-14.336 32-32v-448c0-17.664-14.304-32-32-32zM576 384h-160v-384h160v384zM256-64h-224c-17.664 0-32 14.336-32 32v640c0 17.664 14.336 32 32 32h224c17.664 0 32-14.336 32-32v-640c0-17.664-14.336-32-32-32zM224 576h-160v-576h160v576z" />
<glyph unicode="&#xe911;" glyph-name="barcode" d="M32 66.88h960c17.673 0 32 14.327 32 32v0 698.24c0 17.673-14.327 32-32 32v0h-960c-17.673 0-32-14.327-32-32v0-698.24c0-17.673 14.327-32 32-32v0zM849.6 765.12h66.88v-634.24h-66.88zM674.88 765.12h110.72v-634.24h-110.72zM544 765.12h66.88v-634.24h-66.88zM456.64 765.12h23.36v-634.24h-23.36zM194.88 765.12h197.76v-634.24h-197.76zM64 765.12h66.88v-634.24h-66.88z" />
<glyph unicode="&#xe912;" glyph-name="basket" d="M1015.648 676c-5.952 8.448-15.648 13.504-25.984 13.504h-679.136l-51.424 177.28c-20.16 69.824-68.064 77.344-87.712 77.344h-137.088c-17.568 0-31.776-14.24-31.776-31.776s14.24-31.776 31.776-31.776h137.056c4.352 0 17.568 0 26.592-31.168l176.864-649.952c3.84-13.696 16.352-23.168 30.592-23.168h431.968c13.408 0 25.376 8.384 29.888 21.024l152.256 449.696c3.52 9.728 2.048 20.576-3.904 29.024zM815.040 239.808h-385.472l-101.152 386.112h616.096zM752 111.872c-44.192 0-80-35.808-80-80s35.808-80 80-80 80 35.808 80 80c0 44.192-35.808 80-80 80zM464 111.872c-44.192 0-80-35.808-80-80s35.808-80 80-80 80 35.808 80 80c0 44.192-35.808 80-80 80z" />
<glyph unicode="&#xe913;" glyph-name="basket-loaded" d="M1015.648 676c-5.952 8.448-15.648 13.504-25.984 13.504h-99.744l-205.12 174.816c-24.96 24.96-65.504 24.992-90.496 0l-201.664-174.816h-82.112l-51.424 177.28c-20.16 69.824-68.064 77.344-87.712 77.344h-137.088c-17.568 0-31.776-14.24-31.776-31.776s14.24-31.776 31.776-31.776h137.056c4.352 0 17.568 0 26.592-31.168l176.864-649.952c3.84-13.696 16.352-23.168 30.592-23.168h431.968c13.408 0 25.376 8.384 29.888 21.024l152.256 449.696c3.52 9.728 2.048 20.576-3.904 29.024zM639.552 819.072l152.032-129.6h-304.128zM815.040 239.808h-385.472l-101.152 386.112h616.096zM752 111.872c-44.192 0-80-35.808-80-80s35.808-80 80-80 80 35.808 80 80c0 44.192-35.808 80-80 80zM464 111.872c-44.192 0-80-35.808-80-80s35.808-80 80-80 80 35.808 80 80c0 44.192-35.808 80-80 80z" />
<glyph unicode="&#xe914;" glyph-name="bell" d="M905.6 248.096c-37.344 45.408-88.48 109.728-88.48 175.36v208.96c0 180-134.624 326.464-306.688 326.464-172.096 0-305.664-146.464-305.664-326.464v-208.96c0-64.512-55.488-125.472-90.656-172.8-31.648-42.496-56.64-76.096-39.744-109.664 14.816-29.536 51.968-33.312 82.656-33.312h183.36c0.064-94.208 76.448-170.592 170.656-170.592s170.656 76.352 170.688 170.592h187.648c19.52 0 65.152 0 80.864 33.216 15.84 33.6-9.504 64.512-44.64 107.232zM511.008 4.128c-57.216 0-103.648 46.336-103.712 103.52h207.424c-0.096-57.184-46.464-103.52-103.712-103.52zM869.376 175.808h-712.384c-4.896 0-8.992 0.16-12.352 0.384 6.592 10.208 16.256 23.264 24.16 33.856 38.976 52.384 104.16 126.368 104.16 213.408v208.96c0 142.464 103.040 258.336 237.536 258.336s238.56-115.904 238.56-258.336v-208.96c0-90.016 60.096-165.248 103.968-218.624 7.392-8.992 16.224-19.744 23.104-28.96-2.048-0.064-4.288-0.096-6.688-0.096z" />
<glyph unicode="&#xe915;" glyph-name="bitcoin" d="M96 64h128v-96c0-17.673 14.327-32 32-32v0h128c17.673 0 32 14.327 32 32v0 96h64v-96c0-17.673 14.327-32 32-32v0h128c17.673 0 32 14.327 32 32v0 96h32c140.902 0.637 254.878 115.007 254.878 255.998 0 111.054-70.714 205.593-169.572 241.043l-1.786 0.559c27.356 28.657 44.191 67.562 44.191 110.4 0 88.264-71.47 159.835-159.695 160h-0.016v96c0 17.673-14.327 32-32 32v0h-128c-17.673 0-32-14.327-32-32v0-96h-64v96c0 17.673-14.327 32-32 32v0h-128c-17.673 0-32-14.327-32-32v0-96h-128c-17.673 0-32-14.327-32-32v0-128c0-17.673 14.327-32 32-32v0h128v-384h-128c-17.673 0-32-14.327-32-32v0-128c0-17.673 14.327-32 32-32v0zM352 0h-64v64h64zM608 0h-64v64h64zM544 896h64v-64h-64zM288 896h64v-64h-64zM128 704v64h544c53.019 0 96-42.981 96-96s-42.981-96-96-96v0h-384v64h320c17.673 0 32 14.327 32 32s-14.327 32-32 32v0h-480zM128 192h576c70.692 0 128 57.308 128 128s-57.308 128-128 128v0h-320c-17.673 0-32-14.327-32-32v0-160h-64v256h416c106.039 0 192-85.961 192-192s-85.961-192-192-192v0h-576zM416 256v128h288c35.346 0 64-28.654 64-64s-28.654-64-64-64v0z" />
<glyph unicode="&#xe916;" glyph-name="bold" d="M576-64h-472.32c-17.673 0-32 14.327-32 32v0 960c0 17.673 14.327 32 32 32v0h557.12c1.12 0.020 2.441 0.032 3.764 0.032 37.802 0 73.418-9.364 104.653-25.899l-1.217 0.588c30.924-16.596 57.047-38.021 78.382-63.583l0.338-0.417c20.712-25.092 37.445-54.409 48.667-86.321l0.613-1.999c10.929-29.917 17.259-64.456 17.28-100.471v-0.009c-0.031-53.318-14.278-103.303-39.155-146.376l0.755 1.416c-15.925-27.999-36.244-51.584-60.302-70.659l-0.498-0.381c32.391-18.296 59.618-41.848 81.471-69.803l0.449-0.597c34.568-46.479 55.34-105.006 55.34-168.384 0-4.592-0.109-9.159-0.325-13.698l0.024 0.642c0.090-2.467 0.142-5.365 0.142-8.275 0-86.67-45.697-162.666-114.312-205.21l-1.030-0.595c-34.5-21.482-74.634-38.078-117.452-47.528l-2.548-0.472c-41.95-9.988-90.166-15.809-139.709-16h-0.131zM135.68 0h440.32c0.811-0.004 1.771-0.007 2.731-0.007 43.711 0 86.279 4.899 127.183 14.178l-3.834-0.731c37.852 8.302 71.341 22.015 101.599 40.497l-1.439-0.817c52.206 31.79 86.536 88.396 86.536 153.021 0 2.454-0.050 4.897-0.148 7.328l0.011-0.348c0.211 3.636 0.331 7.889 0.331 12.171 0 48.587-15.469 93.561-41.751 130.265l0.46-0.676c-28.978 35.256-68.165 61.16-113.019 73.246l-1.541 0.354c-13.376 4.035-22.95 16.246-22.95 30.694 0 12.885 7.616 23.992 18.592 29.064l0.198 0.082c37.919 16.264 68.457 43.706 88.166 78.141l0.474 0.899c19.112 32.515 30.4 71.62 30.4 113.361 0 0.084 0 0.168 0 0.252v-0.013c0 0.093 0 0.204 0 0.314 0 28.35-5.043 55.522-14.282 80.668l0.522-1.623c-9.294 26.289-22.323 49.010-38.705 68.861l0.305-0.381c-16.35 20.096-36.235 36.61-58.81 48.773l-1.030 0.507c-21.044 11.302-46.045 17.942-72.596 17.942-0.916 0-1.829-0.008-2.741-0.024l0.137 0.002h-525.12zM576 157.76h-208.64c-17.673 0-32 14.327-32 32v0 162.24c0 17.673 14.327 32 32 32v0h217.6c0.286 0.003 0.624 0.005 0.962 0.005 29.502 0 55.743-13.959 72.48-35.633l0.158-0.212c16.378-20.61 26.277-47.009 26.277-75.721 0-1.055-0.013-2.106-0.040-3.154l0.003 0.155c0.105-1.763 0.164-3.824 0.164-5.899 0-29.812-12.316-56.748-32.139-75.996l-0.026-0.025c-19.589-18.441-46.052-29.772-75.161-29.772-0.576 0-1.151 0.004-1.725 0.013l0.087-0.001zM399.68 221.76h176.32c0.27-0.006 0.588-0.009 0.907-0.009 11.961 0 22.873 4.495 31.138 11.888l-0.045-0.039c7.701 7.457 12.481 17.89 12.481 29.44 0 1.805-0.117 3.583-0.343 5.326l0.022-0.206c0.036 0.774 0.057 1.682 0.057 2.595 0 13.649-4.594 26.224-12.32 36.265l0.103-0.14c-4.966 7.205-13.172 11.867-22.466 11.867-0.427 0-0.851-0.010-1.273-0.029l0.060 0.002h-185.6zM547.52 524.16h-180.16c-17.673 0-32 14.327-32 32v0 147.84c0 17.673 14.327 32 32 32v0h187.84c0.295 0.003 0.644 0.005 0.994 0.005 25.070 0 47.896-9.61 64.994-25.347l-0.068 0.062c18.566-18.44 30.059-43.982 30.059-72.208 0-2.742-0.108-5.459-0.321-8.147l0.023 0.355c0.396-3.275 0.622-7.066 0.622-10.911 0-30.725-14.434-58.079-36.891-75.65l-0.211-0.159c-18.541-12.435-41.359-19.847-65.909-19.847-0.454 0-0.908 0.003-1.36 0.008l0.069-0.001zM399.68 588.16h147.52c0.363-0.009 0.791-0.014 1.22-0.014 11.513 0 22.185 3.597 30.955 9.73l-0.175-0.116c4.16 2.56 8.32 12.48 8.32 32 0.171 1.501 0.269 3.241 0.269 5.004 0 10.12-3.217 19.488-8.685 27.137l0.096-0.142c-5.862 6.309-14.205 10.244-23.467 10.244-0.187 0-0.374-0.002-0.561-0.005h-155.812z" />
<glyph unicode="&#xe917;" glyph-name="book-open" d="M952.096 958.432l-423.040-114.592c-10.752-2.88-34.112-2.848-44.8 0.16l-412.16 114.208c-36.768 10.144-72.416-16.384-72.416-54.272v-778.112c0-32.096 24.32-62.784 55.296-71.424l412.16-114.24c11.040-3.072 25.216-4.768 39.936-4.768 10.080 0 24.992 0.768 38.72 4.544l423.040 114.592c31.072 8.384 55.488 39.040 55.488 71.264v778.144c0.032 37.856-35.616 64.448-72.256 54.496zM480 3.072l-408.928 113.056c-3.072 0.832-7.424 6.496-7.424 9.696v768.032l403.456-111.552c3.904-1.088 8.288-1.952 12.864-2.656v-776.608zM960.32 125.824c0-3.168-5.184-8.64-8.256-9.504l-408.096-110.528v775.904c0.576 0.16 1.216 0.224 1.792 0.384l414.528 112.128v-768.384zM641.984 593.696c2.88 0 5.824 0.352 8.704 1.184l223.936 63.040c17.024 4.8 26.944 22.464 22.144 39.488s-22.56 26.88-39.488 22.144l-223.936-63.040c-17.024-4.8-26.944-22.464-22.144-39.488 3.968-14.112 16.8-23.328 30.784-23.328zM642.016 401.696c2.88 0 5.824 0.384 8.704 1.184l223.936 63.040c17.024 4.8 26.944 22.464 22.144 39.488s-22.56 26.88-39.488 22.176l-223.936-63.040c-17.024-4.8-26.944-22.464-22.144-39.456 3.968-14.144 16.8-23.36 30.784-23.36zM642.016 209.696c2.88 0 5.824 0.384 8.704 1.184l223.936 63.040c17.024 4.832 26.944 22.464 22.144 39.488s-22.56 26.88-39.488 22.144l-223.936-63.040c-17.024-4.832-26.944-22.464-22.144-39.488 3.968-14.112 16.8-23.36 30.784-23.36zM394.624 656.512l-223.936 63.040c-16.928 4.704-34.688-5.152-39.488-22.144s5.12-34.656 22.144-39.488l223.936-63.040c2.88-0.8 5.792-1.184 8.672-1.184 13.984 0 26.816 9.216 30.784 23.328 4.768 16.992-5.12 34.656-22.176 39.488zM394.624 464.512l-223.936 63.040c-16.928 4.736-34.688-5.152-39.488-22.176s5.12-34.656 22.144-39.488l223.936-63.040c2.88-0.832 5.792-1.184 8.672-1.184 13.984 0 26.816 9.216 30.784 23.36 4.768 16.992-5.12 34.656-22.176 39.488zM394.624 272.512l-223.936 63.040c-16.928 4.736-34.688-5.152-39.488-22.144s5.12-34.656 22.144-39.488l223.936-63.040c2.88-0.832 5.792-1.184 8.672-1.184 13.984 0 26.816 9.216 30.784 23.36 4.768 17.024-5.12 34.656-22.176 39.488z" />
<glyph unicode="&#xe918;" glyph-name="briefcase" d="M960 768.512h-255.616v62.016c0 52.96-43.072 96-96 96h-192.448c-52.96 0-96-43.040-96-96v-62.016h-255.968c-35.168 0-64-28.832-64-64v-224.256h-0.032v-64h0.032v-382.816c0-35.168 28.8-64 64-64h896c35.168 0 64 28.832 64 64v671.072c0 35.168-28.832 64-64 64v0zM383.968 830.528c0 17.664 14.336 32 32 32h192.416c17.664 0 32-14.336 32-32v-62.016h-256.448zM64.032 704.512h896v-224.256h-352.384v32.768c0 35.264-28.736 64-64 64h-63.744c-35.264 0-64-28.736-64-64v-32.768h-351.872v224.256zM543.68 351.872h-63.808v161.152h63.744zM64 33.472v382.816h351.872v-64.384c0-35.264 28.704-64 64-64h63.744c35.264 0 64 28.736 64 64v64.384h352.384v-382.816h-896z" />
<glyph unicode="&#xe919;" glyph-name="browser" d="M996.16 832h-968.32c-17.673 0-32-14.327-32-32v0-704c0-17.673 14.327-32 32-32v0h968.32c17.673 0 32 14.327 32 32v0 704c0 17.673-14.327 32-32 32v0zM964.16 656h-533.12c15.298 13.879 24.887 33.813 24.96 55.987v0.013c0 0.098 0.001 0.214 0.001 0.33 0 22.099-9.614 41.953-24.889 55.606l-0.072 0.063h533.12zM380.16 700.16c-0.095-0.003-0.207-0.004-0.32-0.004-6.539 0-11.84 5.301-11.84 11.84 0 0.002 0 0.003 0 0.005v0c-0.102 0.591-0.16 1.272-0.16 1.966 0 6.716 5.444 12.16 12.16 12.16s12.16-5.444 12.16-12.16c0-0.694-0.058-1.375-0.17-2.038l0.010 0.071c0-6.539-5.301-11.84-11.84-11.84v0zM313.92 749.12c-4.062 7.316-9.074 13.552-14.971 18.819l-0.069 0.061h30.080c-5.762-5.468-10.746-11.674-14.821-18.485l-0.219-0.395zM248 700.16c-0.095-0.003-0.207-0.004-0.32-0.004-6.539 0-11.84 5.301-11.84 11.84 0 0.002 0 0.003 0 0.005v0c0 6.716 5.444 12.16 12.16 12.16s12.16-5.444 12.16-12.16v0c0-0.001 0-0.003 0-0.004 0-6.539-5.301-11.84-11.84-11.84-0.113 0-0.225 0.002-0.336 0.005h0.016zM182.080 749.12c-4.295 7.206-9.278 13.412-15.002 18.844l-0.038 0.036h30.080c-5.966-5.328-10.978-11.564-14.855-18.519l-0.185-0.361zM115.84 724.16c6.716 0 12.16-5.444 12.16-12.16v0c-0.979-5.817-5.979-10.194-12-10.194s-11.021 4.377-11.99 10.122l-0.010 0.071c0 0.001 0 0.003 0 0.004 0 6.603 5.263 11.977 11.824 12.155h0.016zM182.080 675.2c3.975-7.473 9.001-13.826 14.972-19.14l0.068-0.060h-30.080c5.837 5.516 10.833 11.836 14.83 18.802l0.21 0.398zM313.92 675.2c4.207-7.364 9.203-13.684 15.001-19.164l0.039-0.036h-30.080c6.039 5.374 11.065 11.727 14.862 18.835l0.178 0.365zM64 768s-3.52-3.2-5.12-5.12v5.12zM64 656h-4.16v5.12zM59.84 128v464h904.32v-464z" />
<glyph unicode="&#xe91a;" glyph-name="brush" d="M32-64c-5.263 0.033-10.215 1.33-14.577 3.604l0.177-0.084c-10.494 5.372-17.561 16.096-17.6 28.475v0.005c0 119.68 57.28 253.12 150.080 260.48 0.753 0.017 1.641 0.026 2.531 0.026 48.879 0 91.075-28.613 110.751-70.004l0.318-0.742c8.332-15.79 13.222-34.509 13.222-54.371 0-30.898-11.835-59.031-31.219-80.114l0.077 0.085c-30.007-34.609-73.557-56.788-122.312-58.234l-0.248-0.006c-27.055-0.695-51.991-9.205-72.793-23.343l0.473 0.303c-5.198-3.8-11.716-6.080-18.766-6.080-0.040 0-0.080 0-0.12 0h0.006zM157.44 164.8h-2.24c-38.4-4.8-74.88-68.8-87.040-144.32 13.747 3.743 30.087 6.683 46.829 8.232l1.171 0.088c0.925-0.029 2.013-0.046 3.104-0.046 31.072 0 58.97 13.584 78.081 35.138l0.094 0.109c9.775 9.785 15.82 23.297 15.82 38.221 0 9.448-2.423 18.33-6.681 26.059l0.141-0.279c-9.092 19.582-27.251 33.606-48.935 36.759l-0.345 0.041zM335.68 149.44c-8.742 0.038-16.65 3.575-22.402 9.282l0.002-0.002-89.28 90.56c-5.705 5.75-9.242 13.658-9.28 22.393v0.007c0 0.055-0.001 0.12-0.001 0.185 0 8.791 3.545 16.753 9.283 22.537l-0.002-0.002 655.040 656.32c5.784 5.751 13.757 9.305 22.56 9.305s16.776-3.555 22.562-9.307l90.558-90.558c5.846-5.8 9.466-13.837 9.466-22.72s-3.619-16.92-9.463-22.718l-0.002-0.002-656.32-654.72c-5.651-6.252-13.69-10.254-22.667-10.559l-0.053-0.001zM290.56 271.68l45.12-45.12 611.2 610.88-45.44 45.44z" />
<glyph unicode="&#xe91b;" glyph-name="bubble" d="M512 832c247.040 0 448-143.552 448-320s-200.96-320-448-320l-26.528-0.096c-17.6 0-29.088 0.48-47.072 3.168l-35.84 5.12-23.008-27.84c-10.592-12.768-64.544-57.12-124.096-85.664 12.096 32.032 21.024 67.008 21.856 101.6l0.32 1.888v44.64l-34.88 17.792c-113.6 58.112-178.72 152.64-178.72 259.392 0 176.448 200.96 320 448 320zM512 896c-282.816 0-512-171.936-512-384 0-132.064 78.272-247.168 213.6-316.352 0-0.832-0.256-1.408-0.256-2.336 0-57.376-32.16-120.48-51.008-152.928h0.064c-1.472-3.488-2.368-7.328-2.368-11.424 0-16.096 12.96-28.992 29.024-28.992 2.4 0 6.272 0.48 7.648 0.48 0.352 0 0.512 0 0.512-0.096 100 16.352 209.952 104.672 231.84 131.328 22.496-3.36 37.664-3.84 56.48-3.84 7.936 0 16.48 0.096 26.528 0.096 282.752 0 512 171.904 512 384 0 212.064-229.248 384-512 384z" />
<glyph unicode="&#xe91c;" glyph-name="bubbles" d="M424.8 280.64c230.944 0 409.888 131.904 407.136 327.616 0 173.184-183.232 311.648-414.176 311.648s-418.144-138.464-418.144-311.648c0-107.872 52.896-222.88 163.392-279.36 0-0.64-0.192-1.152-0.192-1.856 0-46.88-39.040-111.168-54.4-137.664h0.064c-1.216-2.88-1.952-6.016-1.952-9.344 0-13.12 10.56-23.648 23.68-23.648 1.952 0 5.088 0.384 6.208 0.384 0.32 0 0.448 0 0.416-0.096 81.664 13.344 202.272 105.248 220.128 127.040 18.336-2.72 30.72-3.136 46.080-3.136 6.528 0 13.472 0.096 21.728 0.096zM330.688 349.536l-40.992-34.048c-9.504-10.976-50.816-45.44-86.368-67.808 21.632 61.664 20.704 81.216 20.704 81.216l3.008 39.168-34.88 17.792c-88.672 45.344-128.512 139.744-128.512 222.4 0 137.664 158.88 247.648 354.176 247.648s350.176-109.984 350.176-247.648c-0.608-152.608-145.888-264.64-341.152-264.64 0 0-29.792-1.152-60.384 3.36zM1024.32 349.792c0 86.72-33.888 152.896-118.432 202.528-2.048-23.072-8.64-47.84-15.808-69.568 54.656-37.76 70.24-76.576 70.24-132.928 0-69.024-32.16-119.104-106.912-157.344l-31.84-15.808s3.328-82.016 8.224-102.752c-62.432 45.76-83.904 84-83.904 84l-33.664-5.184c-13.312-1.952-49.312-1.952-49.312-1.952-86.944 0-151.36 20.736-206.336 63.744 14.912 0.928-89.184 0.864-91.52-1.152 63.552-77.632 167.488-126.592 297.856-126.592 7.072 0 13.088-0.064 18.72-0.064 13.28 0 24 0.384 39.84 2.688 15.488-18.784 102.24-101.504 172.832-113.024-0.032 0.064 0.064 0.064 0.352 0.064 0.928 0 3.68-0.352 5.344-0.352 11.36 0 20.48 9.12 20.48 20.48 0 2.88-0.64 5.6-1.696 8.064h0.064c-13.28 22.88-34.144 89.76-34.144 130.24 0 0.64-0.192 1.056-0.192 1.632 95.52 48.832 139.744 120.096 139.744 213.28z" />
<glyph unicode="&#xe91d;" glyph-name="bug" d="M944.32 271.36c17.673 0 32 14.327 32 32s-14.327 32-32 32v0h-160v87.040l168 42.24c14.001 3.623 24.175 16.144 24.175 31.040 0 17.681-14.334 32.015-32.015 32.015-2.785 0-5.487-0.356-8.062-1.024l0.222 0.049-155.52-39.040c-13.764 86.851-66.647 159.039-139.688 198.963l-1.432 0.717v48.64c-0.013 27.989-9.008 53.874-24.257 74.933l0.257-0.373 109.12 93.44c8.094 5.881 13.297 15.315 13.297 25.965 0 17.673-14.327 32-32 32-8.971 0-17.080-3.692-22.891-9.639l-0.006-0.006-117.44-100.8c-15.816 7.726-34.392 12.312-54.023 12.48h-0.057c-19.58-0.218-38.039-4.799-54.52-12.813l0.76 0.333-117.44 100.8c-5.589 4.838-12.93 7.786-20.96 7.786-17.732 0-32.106-14.374-32.106-32.106 0-9.702 4.303-18.399 11.105-24.286l0.040-0.034 109.12-93.44c-14.931-20.602-23.915-46.363-24-74.219v-48.661c-74.473-40.641-127.356-112.829-140.916-198.12l-0.204-1.56-155.52 39.040c-2.353 0.619-5.055 0.975-7.84 0.975-17.681 0-32.015-14.334-32.015-32.015 0-14.896 10.174-27.417 23.952-30.991l0.222-0.049 168-42.24v-87.040h-160c-17.673 0-32-14.327-32-32s14.327-32 32-32v0h160v-87.040l-168-42.24c-16.006-2.058-28.249-15.599-28.249-32 0-17.811 14.438-32.249 32.249-32.249 1.41 0 2.799 0.090 4.161 0.266l-0.161-0.017c1.155-0.224 2.482-0.352 3.84-0.352s2.685 0.128 3.972 0.373l-0.132-0.021 155.84 40.96c11.305-72.691 50.103-134.684 105.225-176.139l0.695-0.501c5.282-3.997 11.961-6.402 19.202-6.402 0.112 0 0.223 0.001 0.335 0.002h5.103c8.881 1.779 16.37 6.759 21.371 13.66l0.069 0.1 16.32 24.64c29.636-12.986 64.175-20.543 100.48-20.543s70.845 7.557 102.132 21.184l-1.652-0.641 16.32-24.64c5.070-7.001 12.559-11.981 21.219-13.723l0.221-0.037h5.12c0.094-0.001 0.206-0.002 0.318-0.002 7.241 0 13.92 2.405 19.283 6.46l-0.080-0.058c55.817 41.956 94.615 103.949 105.724 175.114l0.196 1.526 155.84-38.72c1.155-0.224 2.482-0.352 3.84-0.352s2.685 0.128 3.972 0.373l-0.132-0.021c1.201-0.159 2.59-0.249 4-0.249 17.811 0 32.249 14.438 32.249 32.249 0 16.401-12.243 29.942-28.088 31.983l-0.161 0.017-168 42.24v84.8zM448 736c0 35.346 28.654 64 64 64s64-28.654 64-64v0-23.68h-1.92l-7.68 1.92s-1.6 0-2.24 0c-15.575 3.24-33.567 5.21-51.977 5.438l-0.183 0.002c-18.47-0.212-36.35-2.182-53.647-5.752l1.807 0.312c-0.385-0.078-0.827-0.123-1.28-0.123s-0.895 0.045-1.323 0.13l0.043-0.007-7.68-1.92h-1.92zM528 655.040v-3.2c-4.783 0.306-10.371 0.48-16 0.48s-11.217-0.174-16.759-0.518l0.759 0.038v3.2c4.26 0.362 9.218 0.569 14.225 0.569 6.26 0 12.445-0.323 18.538-0.952l-0.763 0.064zM432 616v-495.040l-69.76-105.92c-36.215 36.961-58.565 87.627-58.565 143.513 0 0.509 0.002 1.017 0.006 1.525v-0.078 288c0.361 84.61 50.952 157.315 123.478 189.869l1.322 0.531h3.2zM448 29.12l42.88 64c3.407 5.009 5.44 11.191 5.44 17.849 0 0.025 0 0.050 0 0.075v-0.004 476.8c4.795 0.458 10.367 0.72 16 0.72s11.205-0.261 16.705-0.772l-0.705 0.053v-476.48c0-0.021 0-0.046 0-0.071 0-6.657 2.033-12.84 5.512-17.96l-0.072 0.112 42.88-64c-19.301-6.95-41.573-10.968-64.783-10.968-22.866 0-44.821 3.9-65.236 11.070l1.379-0.422zM720.32 160c-0.041-55.83-22.381-106.434-58.594-143.395l0.034 0.035-11.2 15.36-58.56 88.96v519.040h3.2c74.118-33.295 124.801-106.464 124.801-191.472 0-0.186 0-0.372-0.001-0.557v0.029z" />
<glyph unicode="&#xe91e;" glyph-name="building" d="M960 156.48h-32v28.48c0 35.346-28.654 64-64 64v0h-32v259.52h32c35.346 0 64 28.654 64 64v0 28.48h64c17.592 0.106 31.813 14.392 31.813 31.999 0 12.599-7.281 23.497-17.865 28.717l-0.188 0.084-480 231.040c-4.026 1.962-8.759 3.109-13.76 3.109s-9.734-1.147-13.95-3.193l0.19 0.083-480-231.040c-10.772-5.303-18.053-16.202-18.053-28.801 0-17.607 14.22-31.893 31.803-31.999h64.010v-28.48c0-35.346 28.654-64 64-64v0h32v-259.52h-32c-35.346 0-64-28.654-64-64v0-28.48h-32c-35.346 0-64-28.654-64-64v0-60.48c0-17.673 14.327-32 32-32v0h960c17.673 0 32 14.327 32 32v0 60.48c0 35.346-28.654 64-64 64v0zM512 828.48l339.84-163.52h-679.68zM160 572.48v28.48h704v-28.48h-704zM768 508.48v-259.52h-80v259.52zM624 508.48v-259.52h-80v259.52zM480 508.48v-259.52h-80v259.52zM336 508.48v-259.52h-80v259.52zM160 184.96h704v-28.48h-704zM960 64h-896v28.48h896z" />
<glyph unicode="&#xe91f;" glyph-name="bulb" d="M511.968 960c-198.016 0-353.12-161.12-353.12-359.136 0-149.184 73.28-220.256 131.2-272.128 37.28-33.408 62.368-53.568 62.368-78.336v-54.24c0-1.408 0.192-2.752 0.352-4.128h-0.736v-92.64c0.032-97.696 63.2-163.36 161.056-163.36 94.464 0 158.944 65.664 158.944 163.36v92.64h-0.928c0.192 1.376 0.416 2.72 0.416 4.128v54.24c0 37.76 28.032 60.576 70.528 97.696 57.504 50.208 123.008 112.672 123.008 252.768 0 198.048-155.104 359.136-353.152 359.136zM510.784 0c-59.904 0-94.688 37.152-94.688 99.36l-0.448 42.688c23.040-7.872 54.4-14.048 96.384-14.048 41.408 0 72.832 6.624 96.096 14.784v-43.392c0-63.168-35.264-99.36-97.312-99.36zM700.032 396.288c-43.456-37.952-92.448-77.216-92.448-145.888v-40.448c-15.168-8.48-43.168-18.56-96.128-18.56-55.552 0-81.92 9.856-95.008 17.472v41.536c0 54.592-42.688 89.312-83.68 126.016-54.304 48.672-109.888 103.84-109.888 224.448 0 162.72 126.4 295.136 289.088 295.136 162.752 0 289.152-132.416 289.152-295.136 0-111.040-48.48-158.592-101.12-204.576z" />
<glyph unicode="&#xe920;" glyph-name="calculator" d="M960 960.096h-896c-35.168 0-64-28.8-64-64v-896.192c0-35.168 28.8-64 64-64h896c35.168 0 64 28.832 64 64v896.192c0 35.168-28.832 64-64 64zM960-0.096h-896v896.192h896v-896.192zM224 607.68h64v-64c0-17.664 14.336-32 32-32s32 14.336 32 32v64h64c17.664 0 32 14.336 32 32s-14.336 32-32 32h-64v64c0 17.664-14.336 32-32 32s-32-14.336-32-32v-64h-64c-17.664 0-32-14.336-32-32s14.336-32 32-32zM433.152 368.832c-12.48 12.48-32.768 12.512-45.248 0l-67.904-67.872-67.904 67.872c-12.512 12.48-32.768 12.48-45.28 0s-12.512-32.768 0-45.28l67.872-67.872-67.872-67.872c-12.512-12.48-12.512-32.768 0-45.28s32.768-12.48 45.28 0l67.904 67.84 67.904-67.872c12.48-12.48 32.768-12.48 45.248 0s12.48 32.768 0 45.28l-67.872 67.872 67.872 67.872c12.48 12.512 12.48 32.768 0 45.28zM608 607.712h192c17.664 0 32 14.336 32 32s-14.336 32-32 32h-192c-17.664 0-32-14.336-32-32s14.336-32 32-32zM608 287.712h192c17.664 0 32 14.336 32 32s-14.336 32-32 32h-192c-17.664 0-32-14.336-32-32s14.336-32 32-32zM608 159.712h192c17.664 0 32 14.336 32 32s-14.336 32-32 32h-192c-17.664 0-32-14.336-32-32s14.336-32 32-32z" />
<glyph unicode="&#xe921;" glyph-name="calculator-alt" d="M32-64h960c17.673 0 32 14.327 32 32v0 960c0 17.673-14.327 32-32 32v0h-960c-17.673 0-32-14.327-32-32v0-960c0-17.673 14.327-32 32-32v0zM64 896h896v-896h-896zM817.6 785.6h-611.2c-17.673 0-32-14.327-32-32v0-87.36c0-17.673 14.327-32 32-32v0h611.2c17.673 0 32 14.327 32 32v0 87.36c0 17.673-14.327 32-32 32v0zM785.6 698.24h-547.2v23.36h547.2zM293.76 523.52h-87.36c-17.673 0-32-14.327-32-32v0-87.040c0-17.673 14.327-32 32-32v0h87.36c17.673 0 32 14.327 32 32v0 87.040c0 17.673-14.327 32-32 32v0zM261.76 436.48h-23.36v23.040h23.36zM555.52 523.52h-87.040c-17.673 0-32-14.327-32-32v0-87.040c0-17.673 14.327-32 32-32v0h87.040c17.673 0 32 14.327 32 32v0 87.040c0 17.673-14.327 32-32 32v0zM523.52 436.48h-23.040v23.040h23.040zM817.6 523.52h-87.36c-17.673 0-32-14.327-32-32v0-349.12c0-17.673 14.327-32 32-32v0h87.36c17.673 0 32 14.327 32 32v0 349.12c0 17.673-14.327 32-32 32v0zM785.6 174.4h-23.36v285.12h23.36zM293.76 261.76h-87.36c-17.673 0-32-14.327-32-32v0-87.36c0-17.673 14.327-32 32-32v0h87.36c17.673 0 32 14.327 32 32v0 87.36c0 17.673-14.327 32-32 32v0zM261.76 174.4h-23.36v23.36h23.36zM555.52 261.76h-87.040c-17.673 0-32-14.327-32-32v0-87.36c0-17.673 14.327-32 32-32v0h87.040c17.673 0 32 14.327 32 32v0 87.36c0 17.673-14.327 32-32 32v0zM523.52 174.4h-23.040v23.36h23.040z" />
<glyph unicode="&#xe922;" glyph-name="calendar" d="M960-64h-896c-35.296 0-64 28.704-64 64v800c0 35.296 28.704 64 64 64h256v64c0 17.664 14.336 32 32 32s32-14.336 32-32v-64h256v64c0 17.664 14.336 32 32 32s32-14.336 32-32v-64h256c35.296 0 64-28.704 64-64v-800c0-35.296-28.704-64-64-64zM704 800v-32c0-17.664-14.336-32-32-32s-32 14.336-32 32v32h-256v-32c0-17.664-14.336-32-32-32s-32 14.336-32 32v32h-256v-800h895.904l0.096 800h-256zM800 192h-64c-17.664 0-32 14.336-32 32v64c0 17.664 14.336 32 32 32h64c17.664 0 32-14.336 32-32v-64c0-17.664-14.336-32-32-32zM800 448h-64c-17.664 0-32 14.336-32 32v64c0 17.664 14.336 32 32 32h64c17.664 0 32-14.336 32-32v-64c0-17.664-14.336-32-32-32zM544 192h-64c-17.664 0-32 14.336-32 32v64c0 17.664 14.336 32 32 32h64c17.664 0 32-14.336 32-32v-64c0-17.664-14.336-32-32-32zM544 448h-64c-17.664 0-32 14.336-32 32v64c0 17.664 14.336 32 32 32h64c17.664 0 32-14.336 32-32v-64c0-17.664-14.336-32-32-32zM288 192h-64c-17.664 0-32 14.336-32 32v64c0 17.664 14.336 32 32 32h64c17.664 0 32-14.336 32-32v-64c0-17.664-14.336-32-32-32zM288 448h-64c-17.664 0-32 14.336-32 32v64c0 17.664 14.336 32 32 32h64c17.664 0 32-14.336 32-32v-64c0-17.664-14.336-32-32-32z" />
<glyph unicode="&#xe923;" glyph-name="call-end" d="M961.696 760.448c0-1.056-0.096-1.92-0.224-2.624-26.144-18.016-172.448-114.624-199.776-132.16-2.88-0.064-10.176 0.896-20.608 6.4-11.136 5.824-43.552 24.032-88.864 49.888l-35.264 20.128-33.248-23.328c-24.736-17.408-78.464-58.816-160.288-140.608-82.176-82.144-123.456-135.712-140.768-160.352l-23.328-33.248 20.16-35.264c19.552-34.208 42.944-75.52 50.016-88.928 5.696-10.784 6.112-18.144 6.112-20.16 0-0.32 0-0.608-0.032-0.832-15.36-24.48-114.592-173.952-132.672-200.32-2.56-0.448-8.128-0.032-15.072 4.832-56.256 40.608-114.944 98.24-123.392 120.8 5.632 120.032 111.136 288.448 297.568 474.88s354.72 291.872 474.368 297.44c22.624-8.096 80.64-66.816 120.928-122.528 2.816-4.128 4.48-9.216 4.48-13.984zM1023.712 760.448c0 16.928-5.12 34.912-15.968 50.496-1.056 1.504-108.256 152.096-170.336 150.112-174.432-5.536-379.424-175.072-520.704-316.256s-310.816-346.208-316.384-521.344v-1.44c0-61.312 148.672-169.088 150.144-170.112 40.416-28.288 84.896-17.984 102.944 7.776 11.008 15.648 124.96 187.072 137.792 208.064 5.6 9.152 8.352 20.32 8.352 32.448 0 15.648-4.576 33.024-13.472 49.952-8.672 16.48-37.12 66.464-51.072 90.912 15.136 21.536 53.888 72.128 133.664 151.84 79.168 79.232 130.176 118.304 151.84 133.536 24.448-13.92 74.4-42.336 90.848-50.976 31.008-16.352 61.952-18.24 82.848-4.96 19.68 12.448 189.792 125.984 206.016 137.696 15.264 11.072 23.52 30.848 23.52 52.288z" />
<glyph unicode="&#xe924;" glyph-name="call-in" d="M1000.352 188.384c-15.648 11.008-187.072 124.96-208.064 137.792-9.152 5.6-20.32 8.352-32.48 8.352-15.648 0-33.024-4.544-49.952-13.472-16.48-8.672-66.464-37.12-90.912-51.072-21.536 15.136-72.128 53.856-151.84 133.664-79.232 79.168-118.304 130.176-133.536 151.84 13.92 24.448 42.336 74.4 50.976 90.848 16.352 31.008 18.24 61.984 4.96 82.848-12.448 19.68-125.984 191.808-137.696 208-11.040 15.264-30.816 23.552-52.288 23.552-16.928 0-34.912-5.12-50.496-15.968-1.504-1.056-152.096-110.272-150.112-172.352 5.536-174.432 175.072-379.424 316.256-520.672s346.208-310.816 521.344-316.384h1.44c61.312 0 169.088 148.672 170.112 150.144 28.288 40.384 17.984 84.896-7.776 102.944zM956.128 122.72c-40.576-56.224-98.24-114.944-120.768-123.36-120.032 5.632-288.448 111.136-474.88 297.568s-291.872 354.72-297.44 474.336c8.096 22.624 66.816 80.608 122.528 120.928 4.128 2.848 9.216 4.512 13.952 4.512 1.056 0 1.952-0.096 2.624-0.224 18.016-26.144 114.624-172.448 132.16-199.776 0.064-2.88-0.896-10.176-6.4-20.608-5.824-11.136-24.032-43.552-49.888-88.864l-20.128-35.296 23.328-33.248c17.408-24.704 58.816-78.464 140.64-160.288 82.144-82.208 135.712-123.488 160.352-140.768l33.248-23.36 35.264 20.16c34.208 19.552 75.52 42.944 88.928 50.016 10.784 5.664 18.144 6.144 20.16 6.144 0.32 0 0.608 0 0.832-0.032 24.48-15.36 173.952-114.592 200.32-132.672 0.448-2.56 0.032-8.128-4.832-15.072zM643.84 583.488c4.128-4.16 9.952-6.72 16.384-6.56l11.712 0.256c0.224 0 0.384 0.096 0.64 0.096l229.504-0.992c12.928 0.288 23.616 11.008 23.904 23.936v16.416c-1.952 15.232-13.952 24.16-26.88 23.872l-151.52 0.384 261.952 261.6c12.48 12.512 12.48 32.768 0 45.28s-32.736 12.48-45.248 0l-262.688-262.304 0.864 154.816c0.288 12.928-9.952 24.192-22.88 23.904l-16.416-0.032c-12.96-0.32-23.648-8.032-23.936-20.96l-0.64-231.008c0-0.224 0.864-0.384 0.864-0.608l-1.28-11.712c-0.128-6.496 1.408-12.288 5.568-16.448z" />
<glyph unicode="&#xe925;" glyph-name="call-out" d="M1000.352 188.384c-15.648 11.008-187.072 124.96-208.064 137.792-9.152 5.6-20.32 8.352-32.48 8.352-15.648 0-33.024-4.544-49.952-13.472-16.48-8.672-66.464-37.12-90.912-51.072-21.536 15.136-72.128 53.856-151.84 133.664-79.232 79.168-118.304 130.176-133.536 151.84 13.92 24.448 42.336 74.4 50.976 90.848 16.352 31.008 18.24 61.984 4.96 82.848-12.448 19.68-125.984 191.808-137.696 208-11.040 15.264-30.816 23.552-52.288 23.552-16.928 0-34.912-5.12-50.496-15.968-1.504-1.056-152.096-110.272-150.112-172.352 5.536-174.432 175.072-379.424 316.256-520.672s346.208-310.816 521.344-316.384h1.44c61.312 0 169.088 148.672 170.112 150.144 28.288 40.384 17.984 84.896-7.776 102.944zM956.128 122.72c-40.576-56.224-98.24-114.944-120.768-123.36-120.032 5.632-288.448 111.136-474.88 297.568s-291.872 354.72-297.44 474.336c8.096 22.624 66.816 80.608 122.528 120.928 4.128 2.848 9.216 4.512 13.952 4.512 1.056 0 1.952-0.096 2.624-0.224 18.016-26.144 114.624-172.448 132.16-199.776 0.064-2.88-0.896-10.176-6.4-20.608-5.824-11.136-24.032-43.552-49.888-88.864l-20.128-35.296 23.328-33.248c17.408-24.704 58.816-78.464 140.64-160.288 82.144-82.208 135.712-123.488 160.352-140.768l33.248-23.36 35.264 20.16c34.208 19.552 75.52 42.944 88.928 50.016 10.784 5.664 18.144 6.144 20.16 6.144 0.32 0 0.608 0 0.832-0.032 24.48-15.36 173.952-114.592 200.32-132.672 0.448-2.56 0.032-8.128-4.832-15.072zM683.904 577.728l275.232 273.568-0.864-155.040c-0.288-12.96 9.952-24.192 22.912-23.904l16.416 0.032c12.96 0.32 23.648 8 23.936 20.928l0.64 231.008c0 0.224-0.864 0.384-0.864 0.608l1.28 11.712c0.128 6.496-1.376 12.288-5.6 16.416-4.128 4.192-9.952 6.72-16.384 6.528l-11.712-0.288c-0.224 0-0.384-0.096-0.64-0.128l-229.472 1.024c-12.928-0.288-23.616-10.976-23.904-23.936l-0.032-16.416c1.952-15.232 13.952-24.16 26.88-23.872l151.264-0.416-274.304-272.64c-12.48-12.48-12.48-32.768 0-45.28s32.736-12.48 45.248 0z" />
<glyph unicode="&#xe926;" glyph-name="camera" d="M928 736h-147.168l-76.832 128h-384l-76.8-128h-147.2c-32 0-96-32-96-95.008v-512.992c0-53.024 48-96 89.344-96h840.672c42.016 0 94.016 44.992 94.016 94.976v513.024c0 32-32 96-96 96zM960 126.976c0-12.64-20.448-30.304-29.984-31.008h-840.48c-7.424 0.608-25.504 15.040-25.504 32v512.992c0 20.288 27.232 30.496 32 31.008h183.424l76.8 128h313.664l57.12-96.96 17.6-31.040h183.392c22.56 0 31.68-29.472 32-32v-513.024zM512 640c-123.712 0-224-100.288-224-224s100.288-224 224-224 224 100.288 224 224-100.288 224-224 224zM512 256c-88.224 0-160 71.776-160 160s71.776 160 160 160 160-71.776 160-160-71.776-160-160-160z" />
<glyph unicode="&#xe927;" glyph-name="camrecorder" d="M638.144 736.608c1.28 0 2.336-1.024 2.336-2.24v-127.872c0-23.648 13.056-45.408 34.016-56.512 9.408-4.992 19.712-7.456 30.016-7.456 12.544 0 27.072 3.68 37.856 10.976l217.696 123.232v-456.416l-218.912 119.52c-10.976 7.648-23.776 11.52-36.64 11.52-10.144 0-20.256-2.4-29.568-7.232-21.12-11.040-34.4-32.896-34.432-56.672l-0.16-125.856c0-1.248-1.024-2.24-2.304-2.24h-571.712c-1.28 0-2.272 0.992-2.272 2.24l0.16 572.768c0 1.248 0.992 2.24 2.272 2.24h571.68zM990.368 768.672c-6.816 0-20.288-2.016-27.968-9.664l-257.952-152.48v127.872c0 36.576-29.664 66.24-66.304 66.24h-571.68c-36.672 0-66.272-29.664-66.272-66.24l-0.128-572.736c0-36.544 29.632-66.24 66.272-66.24h571.712c36.64 0 66.304 29.664 66.304 66.24l0.16 125.76 262.976-153.312c7.712-7.68 16.256-6.688 23.072-6.688 7.072 0 12.384 2.144 13.024 2.432 12.448 5.184 20.448 17.184 20.448 30.688v574.976c0 13.504-8.032 25.536-20.448 30.656-0.736 0.32-6.016 2.528-13.152 2.528z" />
<glyph unicode="&#xe928;" glyph-name="chart" d="M272.064 640.032h-224.064c-17.664 0-32-14.304-32-32v-640.032c0-17.664 14.336-32 32-32h224.064c17.696 0 32 14.336 32 32v640c0 17.696-14.304 32-32 32zM240.064 0h-160.064v576h160.064v-576zM623.744 449.76h-224.096c-17.696 0-32-14.336-32-32v-449.76c0-17.664 14.304-32 32-32h224.096c17.664 0 32 14.336 32 32v449.76c0 17.696-14.304 32-32 32zM591.744 0h-160.096v385.76h160.096v-385.76zM976 960h-223.744c-17.664 0-32-14.336-32-32v-960c0-17.664 14.336-32 32-32h223.744c17.664 0 32 14.336 32 32v960c0 17.664-14.336 32-32 32zM944 0h-159.744v896h159.744v-896z" />
<glyph unicode="&#xe929;" glyph-name="check" d="M512 960c-282.752 0-512-229.216-512-512s229.216-512 512-512c282.784 0 512 229.216 512 512s-229.216 512-512 512zM512-1.024c-247.040 0-448 201.984-448 449.024s200.96 448 448 448 448-200.96 448-448-200.96-449.024-448-449.024zM716.352 635.328l-300.416-302.272-135.296 135.264c-12.48 12.48-32.768 12.48-45.28 0s-12.512-32.736 0-45.248l158.4-158.4c12.48-12.48 32.768-12.48 45.28 0 1.44 1.44 2.688 3.008 3.808 4.64l318.784 320.768c12.48 12.48 12.48 32.768 0 45.28s-32.768 12.48-45.28 0z" />
<glyph unicode="&#xe92a;" glyph-name="chemistry" d="M810.432-10.72l-170.4 201.664v353.504h21.312c17.664 0 32 14.304 32 32s-14.336 32-32 32h-53.312c-17.664 0-32-14.304-32-32v-397.824c0-7.936 2.944-15.552 8.256-21.44l130.368-157.344h-405.28l130.368 157.344c5.312 5.856 8.256 13.504 8.256 21.44v397.824c0 17.696-14.304 32-32 32h-53.312c-17.696 0-32-14.304-32-32s14.304-32 32-32h21.312v-353.504l-170.4-201.664c-8.448-9.376-10.624-22.88-5.504-34.432s16.608-19.008 29.248-19.008h549.344c12.64 0 24.096 7.456 29.248 19.008 5.12 11.552 2.976 25.056-5.504 34.432zM480 640.32c35.264 0 63.84 28.576 63.84 63.84 0 35.232-28.576 63.808-63.84 63.808s-63.84-28.608-63.84-63.808c0-35.264 28.576-63.84 63.84-63.84zM688.48 735.328c62.368 0 112.928 50.336 112.928 112.416s-50.528 112.416-112.928 112.416c-62.336 0-112.928-50.336-112.928-112.416s50.592-112.416 112.928-112.416zM687.968 896.352c26.656 0 48.352-21.6 48.352-48.128s-21.664-48.128-48.352-48.128-48.352 21.6-48.352 48.128c0 26.528 21.664 48.128 48.352 48.128z" />
<glyph unicode="&#xe92b;" glyph-name="circle" d="M1024 448c0-282.77-229.23-512-512-512s-512 229.23-512 512c0 282.77 229.23 512 512 512s512-229.23 512-512z" />
<glyph unicode="&#xe92c;" glyph-name="circle_thin" d="M512-64c282.77 0 512 229.23 512 512s-229.23 512-512 512c-282.77 0-512-229.23-512-512v0c0-282.77 229.23-512 512-512v0zM512 896c247.424 0 448-200.576 448-448s-200.576-448-448-448c-247.424 0-448 200.576-448 448v0c0 247.424 200.576 448 448 448v0z" />
<glyph unicode="&#xe92d;" glyph-name="clock" d="M512 960c-282.752 0-512-229.216-512-512s229.216-512 512-512c282.784 0 512 229.216 512 512s-229.216 512-512 512zM512-1.024c-247.040 0-448 201.984-448 449.024s200.96 448 448 448 448-200.96 448-448-200.96-449.024-448-449.024zM544 460.992v307.008c0 17.664-14.336 32-32 32s-32-14.336-32-32v-320c0-9.056 3.776-17.184 9.856-23.008 0.544-0.64 0.96-1.312 1.536-1.888l158.368-158.4c12.48-12.48 32.736-12.48 45.248 0s12.48 32.768 0 45.28z" />
<glyph unicode="&#xe92e;" glyph-name="close" d="M512 960c-282.752 0-512-229.216-512-512s229.216-512 512-512c282.784 0 512 229.216 512 512s-229.216 512-512 512zM512-1.024c-247.040 0-448 201.984-448 449.024s200.96 448 448 448 448-200.96 448-448-200.96-449.024-448-449.024zM693.024 628.992c-12.48 12.48-32.736 12.48-45.248 0l-135.744-135.744-135.744 135.744c-12.48 12.48-32.768 12.48-45.28 0s-12.48-32.768 0-45.248l135.744-135.744-135.744-135.744c-12.48-12.48-12.48-32.768 0-45.248s32.768-12.48 45.28 0l135.744 135.744 135.744-135.744c12.48-12.48 32.736-12.48 45.248 0s12.48 32.768 0 45.248l-135.744 135.744 135.744 135.744c12.512 12.512 12.512 32.768 0 45.248z" />
<glyph unicode="&#xe92f;" glyph-name="cloud-download" d="M763.040 700c-44.64 118.432-140.544 193.44-285.44 193.44-184.384 0-313.376-136.928-324.48-315.552-88.928-28.448-153.088-119.136-153.088-221.856 0-125.76 98.848-231.968 215.808-231.968h28.448c17.664 0 32 14.336 32 32s-14.336 32-32 32h-28.448c-82.304 0-152.832 76.928-152.832 167.968 0 80.48 56.416 153.056 127.168 165.216l29.024 4.992-2.592 29.344-0.256 0.352c0 155.872 102.592 273.44 261.184 273.44 127.104 0 198.528-62.624 231.552-169.44l6.816-22.016 23.072-0.48c118.88-2.496 223.072-98.944 223.072-218.784 0-109.056-72.288-230.592-181.728-230.592h-9.12c-17.664 0-32-14.336-32-32s14.336-32 32-32v0.096c160 4.224 252.256 157.088 252.256 294.496-0.032 147.744-115.808 265.728-260.512 281.312zM646.336 184.544c-8.928 9.344-23.392 9.344-32.32 0l-70.4-77.664v322.144c0 17.664-14.336 32-32 32s-32-14.336-32-32v-322.432l-68.096 75.936c-8.96 9.344-23.424 11.36-32.352 2.016l-8.064-4.416c-8.96-9.376-8.96-24.48 0-33.824l115.52-127.744c0.16-0.16 0.192-0.384 0.352-0.544l8.096-8.48c4.48-4.672 10.368-7.008 16.288-6.976 5.856-0.032 11.776 2.304 16.224 6.976l8.096 8.48c0.16 0.16 0.256 0.352 0.384 0.544l118.432 129.76c8.928 9.344 8.928 20.448 0 29.824z" />
<glyph unicode="&#xe930;" glyph-name="cloud-upload" d="M763.040 700.032c-44.64 118.432-140.544 193.44-285.472 193.44-184.384 0-313.376-136.928-324.48-315.52-88.896-28.448-153.088-119.136-153.088-221.856 0-125.76 98.848-231.968 215.808-231.968h92.448c17.664 0 32 14.336 32 32s-14.336 32-32 32h-92.448c-82.304 0-152.832 76.928-152.832 167.968 0 80.448 56.416 153.056 127.168 165.216l29.024 4.992-2.56 29.312-0.256 0.352c0 155.872 102.56 273.44 261.152 273.44 127.104 0 198.528-62.624 231.552-169.44l6.848-22.016 23.072-0.48c118.88-2.496 223.104-98.944 223.104-218.784 0-109.056-72.288-230.592-181.696-230.592h-73.12c-17.664 0-32-14.336-32-32s14.336-32 32-32l72.864 0.096c160 4.224 243.36 157.056 243.36 294.496 0 147.712-115.744 265.76-260.48 281.312zM536 445.056c-0.192 0.192-0.256 0.352-0.352 0.512l-8.096 8.448c-4.448 4.672-10.336 7.008-16.256 6.976-5.888 0.064-11.776-2.304-16.288-6.976l-8.096-8.448c-0.16-0.16-0.192-0.352-0.352-0.512l-115.52-127.744c-8.96-9.344-8.96-24.448 0-33.856l8.064-5.472c8.96-9.344 23.424-6.304 32.352 3.040l68.096 75.936v-322.432c0-17.664 14.336-32 32-32s32 14.336 32 32v322.112l70.368-77.632c8.928-9.344 23.424-12.384 32.352-3.040l8.064 5.472c8.928 9.376 8.928 24.48 0 33.856z" />
<glyph unicode="&#xe931;" glyph-name="code" d="M227.52 207.36l45.44 45.12c-108.48 108.48-165.12 163.52-196.48 195.52l196.48 195.52c5.815 5.815 9.411 13.847 9.411 22.72 0 17.745-14.386 32.131-32.131 32.131-8.873 0-16.905-3.596-22.72-9.411v0l-218.24-218.24c-5.641-5.908-9.153-13.892-9.28-22.695v-0.025c0.038-8.901 3.704-16.938 9.595-22.715l0.005-0.005zM1014.72 470.72c-3.2 2.88-218.24 218.24-218.24 218.24l-45.12-45.44c108.16-108.16 164.8-165.12 196.16-194.88l-196.16-196.16c-5.847-5.8-9.466-13.837-9.466-22.72 0-17.626 14.251-31.924 31.859-32h0.007c8.901 0.038 16.938 3.704 22.715 9.595l0.005 0.005 218.24 217.92c5.736 5.782 9.281 13.744 9.281 22.535 0 0.065 0 0.13-0.001 0.195v-0.010c0 0.055 0.001 0.12 0.001 0.185 0 8.791-3.545 16.753-9.283 22.537l0.002-0.002zM424.64 66.88c0.278-0.009 0.604-0.014 0.932-0.014 14.951 0 27.507 10.254 31.021 24.112l0.048 0.221 173.76 698.24c0.421 1.947 0.662 4.184 0.662 6.477 0 17.673-14.327 32-32 32-14.508 0-26.762-9.655-30.685-22.891l-0.058-0.226-174.72-698.24c-0.629-2.371-0.99-5.093-0.99-7.9 0-14.608 9.789-26.93 23.165-30.765l0.226-0.055c2.348-0.616 5.043-0.97 7.821-0.97 0.288 0 0.575 0.004 0.861 0.011l-0.042-0.001z" />
<glyph unicode="&#xe932;" glyph-name="compass" d="M733.184 679.744l-313.152-134.624c-5.664-2.88-10.24-7.456-13.152-13.152l-143.456-289.216c-5.888-11.52-3.744-25.536 5.312-34.784 5.792-5.888 13.632-9.024 21.536-9.024 4.448 0 8.928 0.96 13.12 3.008l305.728 126.976c5.6 2.688 10.24 7.072 13.216 12.512l150.88 296.896c6.432 11.616 4.512 26.016-4.64 35.552-9.216 9.536-23.584 11.872-35.36 5.888zM357.856 295.168l87.008 177.696 87.872-109.984zM584.704 400.384l-88.8 111.136 176.8 69.76zM512 960c-282.752 0-512-229.216-512-512s229.216-512 512-512c282.784 0 512 229.216 512 512s-229.216 512-512 512zM512-1.024c-247.040 0-448 201.984-448 449.024s200.96 448 448 448 448-200.96 448-448-200.96-449.024-448-449.024z" />
<glyph unicode="&#xe933;" glyph-name="config" d="M928 516.544v-548.544c0-17.696-14.304-32-32-32s-32 14.304-32 32v548.544c-55.072 14.304-96 63.968-96 123.456s40.928 109.152 96 123.456v164.544c0 17.696 14.304 32 32 32s32-14.304 32-32v-164.544c55.072-14.304 96-63.968 96-123.456s-40.928-109.152-96-123.456zM896 704c-35.264 0-64-28.704-64-64s28.736-64 64-64c35.296 0 64 28.704 64 64s-28.704 64-64 64zM544 132.544v-164.544c0-17.696-14.304-32-32-32s-32 14.304-32 32v164.544c-55.072 14.304-96 63.968-96 123.456s40.928 109.152 96 123.456v548.544c0 17.696 14.304 32 32 32s32-14.304 32-32v-548.544c55.072-14.304 96-63.968 96-123.456s-40.928-109.152-96-123.456zM512 320c-35.296 0-64-28.736-64-64s28.704-64 64-64c35.296 0 64 28.736 64 64s-28.704 64-64 64zM160 324.544v-356.544c0-17.696-14.304-32-32-32s-32 14.304-32 32v356.544c-55.072 14.304-96 63.968-96 123.456s40.928 109.152 96 123.456v356.544c0 17.696 14.304 32 32 32s32-14.304 32-32v-356.544c55.072-14.304 96-63.968 96-123.456s-40.928-109.152-96-123.456zM128 512c-35.264 0-64-28.736-64-64 0-35.296 28.736-64 64-64s64 28.704 64 64c0 35.264-28.736 64-64 64z" />
<glyph unicode="&#xe934;" glyph-name="control-end" d="M943.936 960c-17.664 0-32-14.336-32-32v-470.016c-2.88 18.208-13.44 34.464-29.376 44.384l-735.712 446.624c-10.304 6.4-22.048 9.632-33.792 9.632-10.72 0-21.408-2.688-31.072-8.064-20.32-11.264-32.896-32.704-32.896-55.936l-1.024-893.216c0-23.264 12.576-44.64 32.896-55.936 9.696-5.376 20.352-8.064 31.072-8.064 11.712 0 23.456 3.232 33.76 9.664l736.736 446.624c15.936 9.856 26.496 26.144 29.376 44.352v-470.016c0-17.664 14.336-32 32-32s32 14.336 32 32v960c0 17.664-14.336 32-32 32zM112.064 1.376l0.992 893.216 735.744-446.592z" />
<glyph unicode="&#xe935;" glyph-name="control-forward" d="M450.080 762.112l505.28-314.112-505.28-314.112v246.976l-384-246.976v628.192l384-246.976v255.84zM452.736 826.080c-10.72 0-22.72-2.656-32.448-8.064-20.288-11.296-34.208-32.704-34.208-55.936v-131.84l-298.208 186.208c-10.304 6.4-21.376 9.632-33.12 9.632-10.688 0-15.744-2.656-25.44-8.064-20.288-11.296-27.232-32.704-27.232-55.936v-628.192c0-23.264 7.264-44.64 27.584-55.936 9.664-5.376 17.728-8.064 28.448-8.064 11.712 0 20.768 3.232 31.104 9.664l296.896 186.176v-131.84c0-23.264 13.92-44.64 34.208-55.936 9.696-5.376 21.056-8.064 31.776-8.064 11.712 0 23.776 3.232 34.112 9.664l505.472 314.112c18.784 11.648 30.304 32.224 30.304 54.336s-11.36 42.688-30.144 54.336l-505.28 314.112c-10.304 6.4-22.048 9.632-33.76 9.632v0z" />
<glyph unicode="&#xe936;" glyph-name="controller" horiz-adv-x="1025" d="M996.985 501.869l-49.571-49.571c-31.54-31.54-88.64-52.641-133.332-48.634l-129.713 11.181-135.885-135.885 27.177-97.204c12.635-45.047-2.811-104.022-35.934-137.113l-81.24-81.24c-17.935-17.967-41.88-27.888-67.442-27.888v0c-25.529 0-49.474 9.888-67.442 27.856l-296.232 296.265c-37.162 37.195-37.162 97.688 0 134.883l538.498 538.466c37.227 37.162 97.753 37.13 134.915 0l296.2-296.2c17.967-17.967 27.856-41.913 27.856-67.474 0-25.529-9.888-49.474-27.856-67.442zM951.679 591.479l-296.2 296.2c-12.215 12.215-32.121 12.15-44.336-0.032l-538.466-538.401c-12.183-12.215-12.183-32.121 0.032-44.336l296.2-296.232c11.73-11.698 32.574-11.73 44.272 0.032l81.24 81.24c16.513 16.513 25.82 52.060 19.518 74.551l-30.926 110.647c-0.614 1.39-0.808 2.844-1.196 4.298l-0.485 1.68c-0.097 0.42 0 0.776-0.065 1.196-0.517 2.747-0.84 5.429-0.614 8.208 0.259 10.632 5.655 20.165 14.671 25.884l147.486 147.486c5.397 9.662 15.576 15.737 27.145 15.834 1.066 0.097 2.1 0.355 3.199 0.323 0.065 0 0.129 0.032 0.226 0.032l146.226-12.571c24.883-1.939 64.566 12.15 82.468 30.085l49.604 49.571c12.215 12.215 12.215 32.089 0 44.304zM672.574 608.574h64.63v-64.63h-64.63v64.63zM672.574 736.832h64.63v-64.662h-64.63v64.662zM544.315 608.574h64.63v-64.63h-64.63v64.63zM544.315 736.832h64.63v-64.662h-64.63v64.662zM404.649 235.302c-6.237-6.269-14.445-9.404-22.653-9.404-8.176 0-16.384 3.135-22.653 9.404l-41.428 41.428-41.428-41.428c-6.237-6.269-14.445-9.404-22.653-9.404-8.176 0-16.384 3.135-22.653 9.404-12.506 12.506-12.506 32.8 0 45.306l41.428 41.428-41.428 41.428c-12.506 12.506-12.506 32.8 0 45.306 12.538 12.506 32.8 12.506 45.306 0l41.428-41.428 41.428 41.428c12.538 12.506 32.8 12.506 45.306 0 12.538-12.506 12.538-32.8 0-45.306l-41.428-41.428 41.428-41.428c12.538-12.506 12.538-32.8 0-45.306z" />
<glyph unicode="&#xe937;" glyph-name="control-pause" d="M416.256 960h-224.192c-17.664 0-32-14.336-32-32v-960c0-17.664 14.336-32 32-32h224.192c17.696 0 32 14.336 32 32v960c0 17.664-14.304 32-32 32zM384.256 0h-160.192v896h160.192v-896zM831.936 960h-223.072c-17.664 0-32-14.336-32-32v-960c0-17.664 14.336-32 32-32h223.072c17.664 0 32 14.336 32 32v960c0 17.664-14.304 32-32 32zM799.936 0h-159.072v896h159.072v-896z" />
<glyph unicode="&#xe938;" glyph-name="control-play" d="M144.608 894.624l735.744-446.592-736.736-446.624zM144.608 958.624c-10.72 0-21.408-2.688-31.072-8.064-20.32-11.264-32.928-32.704-32.928-55.936l-0.992-893.216c0-23.264 12.576-44.64 32.896-55.936 9.696-5.376 20.352-8.064 31.072-8.064 11.712 0 23.488 3.232 33.76 9.664l736.736 446.624c18.816 11.648 30.272 32.224 30.272 54.336s-11.456 42.688-30.272 54.336l-735.712 446.624c-10.304 6.4-22.048 9.632-33.76 9.632v0z" />
<glyph unicode="&#xe939;" glyph-name="control-rewind" d="M573.92 762.112l-505.28-314.112 505.28-314.112v246.976l384-246.976v628.192l-384-246.976v247.008zM571.264 826.080c10.688 0 22.72-2.656 32.416-8.064 20.32-11.296 34.24-32.704 34.24-55.936v-131.84l298.208 186.208c10.336 6.4 21.376 9.632 33.12 9.632 10.688 0 15.712-2.656 25.408-8.064 20.32-11.296 27.232-32.704 27.232-55.936v-628.192c0-23.264-7.264-44.64-27.552-55.936-9.664-5.376-17.728-8.064-28.448-8.064-11.712 0-20.768 3.232-31.104 9.664l-296.896 186.176v-131.84c0-23.264-13.92-44.64-34.24-55.936-9.664-5.376-21.024-8.064-31.744-8.064-11.712 0-23.808 3.232-34.112 9.664l-505.472 314.112c-18.784 11.648-30.272 32.192-30.272 54.336s11.36 42.688 30.144 54.336l505.28 314.112c10.304 6.4 22.016 9.632 33.76 9.632z" />
<glyph unicode="&#xe93a;" glyph-name="control-start" d="M974.944 894.624c0 23.232-12.576 44.64-32.928 55.936-9.664 5.408-20.384 8.064-31.072 8.064-11.712 0-23.456-3.232-33.76-9.632l-735.712-446.592c-15.936-9.888-26.528-26.208-29.376-44.384v470.016c0 17.664-14.336 32-32 32s-32-14.336-32-32v-960c0-17.664 14.336-32 32-32s32 14.336 32 32v470.080c2.88-18.208 13.44-34.496 29.376-44.384l736.736-446.624c10.336-6.432 22.048-9.664 33.76-9.664 10.72 0 21.408 2.688 31.072 8.064 20.32 11.264 32.928 32.672 32.928 55.936zM175.2 448l735.744 446.592 1.024-893.216z" />
<glyph unicode="&#xe93b;" glyph-name="copyright" d="M512-64c282.77 0 512 229.23 512 512v0c-0.135 282.668-229.313 511.763-512 511.763-141.326 0-269.278-57.26-361.923-149.845l0.002 0.002c-92.583-92.642-149.843-220.594-149.843-361.92s57.26-269.278 149.845-361.923l-0.003 0.003c91.983-92.698 219.439-150.083 360.299-150.083 0.57 0 1.14 0.001 1.71 0.003h-0.089zM195.2 764.8c81.074 81.082 193.080 131.232 316.8 131.232s235.726-50.151 316.8-131.232v0c81.062-81.070 131.2-193.064 131.2-316.768 0-247.424-200.576-448-448-448s-448 200.576-448 448c0 123.704 50.138 235.697 131.2 316.768v0zM512 154.24c0.095 0 0.207 0 0.319 0 81.014 0 154.343 32.902 207.354 86.073l0.007 0.007c4.783 5.559 7.695 12.847 7.695 20.815 0 17.673-14.327 32-32 32-7.968 0-15.255-2.912-20.857-7.73l0.042 0.035c-41.569-41.522-98.971-67.2-162.37-67.2-126.893 0-229.76 102.867-229.76 229.76s102.867 229.76 229.76 229.76c63.399 0 120.801-25.678 162.372-67.202l-0.002 0.002c5.559-4.783 12.847-7.695 20.815-7.695 17.673 0 32 14.327 32 32 0 7.968-2.912 15.255-7.73 20.857l0.035-0.042c-53.152 53.405-126.717 86.454-208 86.454s-154.848-33.049-207.988-86.443l-0.012-0.012c-53.137-53.156-86.001-126.58-86.001-207.681 0-162.239 131.521-293.76 293.76-293.76 0.197 0 0.395 0 0.592 0.001h-0.031z" />
<glyph unicode="&#xe93c;" glyph-name="credit-card" d="M928.16 784h-832.288c-53.024 0-96-42.976-96-96v-480c0-53.024 42.976-96 96-96h832.288c53.024 0 96 42.976 96 96v480c0 53.024-42.976 96-96 96zM95.84 720h832.288c17.664 0 32-14.336 32-32v-64h-896.288v64c0 17.664 14.368 32 32 32zM928.16 176h-832.288c-17.664 0-32 14.336-32 32v288h896.288v-288c0-17.664-14.336-32-32-32z" />
<glyph unicode="&#xe93d;" glyph-name="crome" d="M512 960c-282.77 0-512-229.23-512-512s229.23-512 512-512c282.77 0 512 229.23 512 512v0c0 282.77-229.23 512-512 512v0zM512 896c164.772-0.175 308.694-89.275 386.376-221.886l1.144-2.114h-387.52c-103.875-0.197-191.143-71.068-216.293-167.081l-0.347-1.559-129.92 224s0 0 0 0c82.035 102.233 206.562 167.452 346.362 168.639l0.198 0.001zM672 448c0-88.366-71.634-160-160-160s-160 71.634-160 160c0 88.366 71.634 160 160 160v0c88.366 0 160-71.634 160-160v0zM64 448c-0.001 0.303-0.001 0.661-0.001 1.020 0 82.189 22.469 159.13 61.6 225.016l-1.119-2.035 192-335.36v-1.92c39.615-66.715 111.293-110.731 193.252-110.731 0.798 0 1.594 0.004 2.39 0.012l-0.121-0.001c21.584 0.177 42.387 3.203 62.152 8.718l-1.672-0.398-129.92-224c-214.786 34.628-377.075 217.982-378.559 439.523l-0.001 0.157zM512 0l193.92 336s0 0 0 0c18.818 32.095 29.932 70.682 29.932 111.864 0 62.728-25.784 119.434-67.332 160.097l-0.040 0.039h261.44c18.704-47.481 29.546-102.475 29.546-160 0-247.236-200.272-447.696-447.437-448h-0.029z" />
<glyph unicode="&#xe93e;" glyph-name="crop" d="M992 160h-128v593.888l119.456 119.296c12.48 12.48 12.48 32.768 0 45.28s-32.768 12.512-45.28 0l-118.592-118.464h-595.584v128c0 17.664-14.304 32-32 32s-32-14.336-32-32v-128h-128c-17.664 0-32-14.304-32-32s14.336-32 32-32h128v-608c0-2.944 0.928-5.6 1.696-8.288 0.32-1.216 0.256-2.464 0.704-3.616 3.232-8.064 9.6-14.432 17.664-17.696 1.376-0.544 2.88-0.48 4.288-0.832 2.528-0.64 4.928-1.568 7.648-1.568h608v-128c0-17.664 14.336-32 32-32s32 14.336 32 32v128h128c17.664 0 32 14.336 32 32s-14.336 32-32 32zM755.488 736l-531.488-530.784v530.784h531.488zM269.28 160l530.72 529.984v-529.984z" />
<glyph unicode="&#xe93f;" glyph-name="cross" d="M601.6 448l176 176c25.6 25.6 25.6 64 0 89.6v0c-9.6 12.8-25.6 22.4-41.6 22.4s-32-6.4-44.8-19.2l-179.2-179.2-176 176c-25.6 25.6-67.2 25.6-89.6 0-12.8-9.6-22.4-25.6-22.4-44.8s6.4-32 19.2-44.8l176-176-176-176c-9.6-12.8-19.2-28.8-19.2-48 0-16 6.4-32 19.2-44.8s28.8-19.2 44.8-19.2c16 0 32 6.4 44.8 19.2l176 176 176-176c25.6-25.6 67.2-25.6 89.6 0 25.6 25.6 25.6 67.2 0 89.6l-172.8 179.2z" />
<glyph unicode="&#xe940;" glyph-name="cup" d="M832.544 544.224c-8.352 0-35.2 0.16-64.32 0.352l0.096 63.968c0 35.328-28.64 64-64 64l-640.48 0.16c-35.36 0-64-28.672-64-64v-480.96c0-106.048 85.984-192 192-192h384.64c106.048 0 191.008 85.952 191.008 192l0.064 32.832c29.024-0.224 58.592-0.384 64.992-0.384 105.76 0 191.552 85.024 191.552 191.072s-85.792 192.928-191.584 192.928zM703.52 127.744c0-70.592-56.384-128-127.008-128h-384.672c-70.592 0-128 57.408-128 128l-0.096 480.96 640.576-0.192zM832.544 223.264c-6.336 0-35.904 0.192-64.864 0.384l0.448 256.8c29.12-0.224 56.064-0.352 64.384-0.352 73.12 0 128.64-54.528 128.64-127.84s-55.488-129.024-128.608-129.024zM575.872 736.224c17.664 0 32 14.336 32 32v160c0 17.664-14.336 32-32 32s-32-14.336-32-32v-160c0-17.696 14.336-32 32-32zM191.872 736.224c17.664 0 32 14.336 32 32v160c0 17.664-14.336 32-32 32s-32-14.336-32-32v-160c0-17.696 14.336-32 32-32zM383.872 736.224c17.664 0 32 14.336 32 32v160c0 17.664-14.336 32-32 32s-32-14.336-32-32v-160c0-17.696 14.336-32 32-32z" />
<glyph unicode="&#xe941;" glyph-name="cursor" d="M921.088 856.768l-336.256-785.792-119.328 344.512-344.192 104.032zM1004.448 959.232c-6.112 0-13.504-1.728-22.112-5.344l-954.656-405.088c-34.4-14.592-36.576-42.72-4.832-62.464l395.296-123.584 129.376-403.264c9.28-15.168 20.48-22.72 31.264-22.72 11.936 0 23.296 9.152 31.040 27.264l408.288 953.728c11.072 25.888 4.768 41.472-13.632 41.472z" />
<glyph unicode="&#xe942;" glyph-name="cursor-move" d="M1016.384 463.36l-8.48 8.064c-0.16 0.16-0.352 0.224-0.544 0.352l-129.76 118.432c-9.344 8.96-24.448 8.96-33.824 0l-5.504-8.064c-9.344-8.96-6.304-23.424 3.040-32.352l76.48-69.344h-371.36v373.344l69.344-76.448c8.928-9.344 23.424-12.384 32.352-3.008l8.064 5.472c8.928 9.376 8.928 24.48 0 33.856l-113.184 123.968c-2.752 5.536-7.008 10.144-12.32 13.28l-1.408 1.472c-4.448 4.672-10.336 7.008-16.224 6.976-5.888 0.032-11.776-2.304-16.288-6.976l-8.096-8.448c-0.16-0.16-0.16-0.352-0.352-0.544l-115.52-127.744c-8.928-9.344-8.928-24.448 0-33.824l8.064-5.472c8.928-9.344 23.424-6.304 32.352 3.040l69.152 77.12v-375.968h-376.288l76.448 69.344c9.344 8.96 12.384 23.424 3.040 32.352l-5.472 8.064c-9.376 8.96-24.512 8.96-33.856 0l-123.968-113.184c-5.536-2.72-10.144-7.008-13.28-12.288l-1.472-1.408c-4.672-4.448-7.008-10.368-6.976-16.256-0.032-5.888 2.272-11.776 6.976-16.288l8.48-8.096c0.16-0.16 0.352-0.192 0.512-0.352l127.744-115.52c9.344-8.928 24.448-8.928 33.856 0l5.472 8.064c9.344 8.928 6.304 23.456-3.040 32.384l-77.12 69.152h379.008v-376.96l-69.152 77.12c-8.96 9.344-23.424 12.384-32.352 3.040l-8.064-5.472c-8.928-9.376-8.928-24.48 0-33.824l115.52-127.744c0.16-0.192 0.192-0.384 0.352-0.544l8.096-8.48c4.512-4.672 10.4-7.008 16.288-6.976 5.856-0.032 11.776 2.304 16.224 6.976l8.096 8.48c0.16 0.16 0.224 0.352 0.384 0.544l118.432 129.76c8.928 9.344 8.928 24.448 0 33.824l-8.064 5.504c-8.928 9.344-23.424 6.304-32.352-3.040l-69.344-76.48v374.336h373.984l-77.12-69.152c-9.344-8.928-12.384-23.456-3.040-32.384l5.472-8.064c9.376-8.928 24.48-8.928 33.824 0l127.744 115.52c0.192 0.192 0.384 0.192 0.544 0.32l8.48 8.096c4.672 4.48 7.008 10.368 6.976 16.288 0.032 5.856-2.304 11.776-6.976 16.224z" />
<glyph unicode="&#xe943;" glyph-name="cut" d="M972.8 146.56c-21.935 62.283-80.269 106.123-148.842 106.123-37.137 0-71.272-12.858-98.193-34.366l0.315 0.243-161.92 123.84 8.32 6.4 121.92-66.88c4.395-2.418 9.631-3.84 15.2-3.84 0.056 0 0.113 0 0.169 0h-0.009c0.026 0 0.057 0 0.087 0 12.040 0 22.527 6.65 27.989 16.477l0.083 0.163 222.080 411.52c14.002 24.972 22.248 54.804 22.248 86.562 0 67.392-37.135 126.111-92.059 156.811l-0.909 0.467-10.88 6.080c-4.958 2.912-10.92 4.632-17.283 4.632-2.607 0-5.146-0.289-7.587-0.835l0.231 0.043c-8.196-2.524-14.834-8.018-18.797-15.195l-0.083-0.165-290.88-536.64-32-24-32 25.28-291.2 534.080c-3.871 7.916-10.681 13.893-18.974 16.577l-0.226 0.063c-2.714 0.832-5.833 1.311-9.064 1.311-5.591 0-10.847-1.434-15.421-3.954l0.165 0.083-11.2-7.36c-55.484-31.258-92.343-89.791-92.343-156.932 0-31.769 8.252-61.61 22.729-87.497l-0.467 0.909 224-411.84c4.116-7.4 10.876-12.91 18.974-15.303l0.226-0.057c1.347-0.234 2.898-0.367 4.48-0.367s3.133 0.134 4.642 0.39l-0.162-0.023c0.048 0 0.104 0 0.16 0 5.569 0 10.805 1.422 15.366 3.924l-0.166-0.084 121.92 66.88 8.32-6.4-160-123.84c-13.143 9.237-28.317 16.851-44.566 22.069l-1.194 0.331c-16.301 6.132-35.142 9.682-54.812 9.682-88.366 0-160-71.634-160-160 0-24.664 5.58-48.024 15.547-68.887l-0.415 0.965c18.043-38.435 49.96-67.855 89.142-82.208l1.098-0.352c16.253-6.126 35.038-9.748 54.646-9.919l0.074-0.001c68.822 0.030 127.482 43.508 150.041 104.492l0.359 1.108c6.2 16.243 9.791 35.029 9.791 54.654 0 24.81-5.739 48.28-15.962 69.155l0.411-0.929c-2.145 4.242-4.271 7.802-6.611 11.205l0.211-0.325 172.48 131.2 172.16-131.84c-1.92-3.84-4.48-7.040-6.4-10.88-9.451-19.807-14.971-43.047-14.971-67.577 0-88.366 71.634-160 160-160s160 71.634 160 160c0 19.657-3.545 38.486-10.030 55.883l0.361-1.106zM874.88 882.56c18.401-14.554 32.081-34.345 38.835-57.114l0.205-0.806c3.010-9.822 4.743-21.113 4.743-32.808 0-20.483-5.316-39.724-14.644-56.419l0.301 0.587-207.36-384-84.16 46.080zM326.4 352l-207.36 384c-8.861 15.962-14.077 35.004-14.077 55.265 0 36.467 16.898 68.988 43.29 90.159l0.227 0.176 262.080-483.2zM291.2 58.88c-8.965-24.086-26.599-43.176-49.018-53.831l-0.582-0.249c-11.904-5.692-25.873-9.017-40.62-9.017-53.019 0-96 42.981-96 96 0 11.731 2.104 22.97 5.955 33.362l-0.216-0.664c8.822 24.166 26.354 43.362 48.706 54.15l0.574 0.25c11.934 5.526 25.885 8.812 40.587 8.96h0.053c11.517-0.16 22.494-2.257 32.689-5.98l-0.689 0.22c37.744-13.502 64.264-48.955 64.264-90.603 0-11.694-2.091-22.899-5.919-33.263l0.215 0.665zM855.36 0c-9.798-3.693-21.124-5.832-32.949-5.832-14.758 0-28.739 3.33-41.231 9.28l0.581-0.249c-33.050 15.643-55.503 48.72-55.503 87.040 0 53.019 42.981 96 96 96 0.050 0 0.1 0 0.151 0h-0.008c52.698-0.422 95.255-43.24 95.255-95.997 0-41.271-26.043-76.459-62.591-90.027l-0.664-0.216z" />
<glyph unicode="&#xe944;" glyph-name="database" d="M512 512c201.6 0 416 61.76 416 176v96c0 114.24-214.4 176-416 176s-416-61.76-416-176v-96c0-114.24 214.4-176 416-176zM160 784c0 45.76 137.28 112 352 112s352-66.24 352-112v-96c0-45.76-137.28-112-352-112s-352 66.24-352 112zM512-64c201.6 0 416 61.76 416 176v96c0 17.673-14.327 32-32 32s-32-14.327-32-32v0-96c0-45.76-137.28-112-352-112s-352 66.24-352 112v96c0 17.673-14.327 32-32 32s-32-14.327-32-32v0-96c0-114.24 214.4-176 416-176zM512 224c201.6 0 416 61.76 416 176v96c0 17.673-14.327 32-32 32s-32-14.327-32-32v0-96c0-45.76-137.28-112-352-112s-352 66.24-352 112v96c0 17.673-14.327 32-32 32s-32-14.327-32-32v0-96c0-114.24 214.4-176 416-176z" />
<glyph unicode="&#xe945;" glyph-name="diamond" d="M1018.72 664.544l-139.872 267.456c-8.16 15.584-29.28 28.352-46.848 28.352h-321.92c-0.352 0.032-0.704 0.096-1.056 0.128-0.288 0-0.576-0.096-0.864-0.128h-316.16c-17.6 0-38.752-12.736-47.040-28.256l-139.488-262.304c-8.288-15.552-6.624-39.936 3.616-54.272l480.032-669.152c5.152-7.168 12-10.816 18.816-10.816 6.784 0 13.568 3.52 18.784 10.592l487.904 664.256c10.4 14.208 12.256 38.528 4.096 54.112zM942.368 672.384h-171.456l68.672 196.608zM575.328 896.32h205.952l-63.904-182.912zM668.224 672.384h-297.632l140.672 202.112zM313.888 702.912l-64.192 193.408h198.816zM680.736 608.384l-172.032-492.544-163.456 492.544h335.488zM436.928 128.928l-343.936 479.456h184.832zM748.544 608.384h185.184l-352.96-480.576zM188.48 877.6l68.096-205.216h-177.248z" />
<glyph unicode="&#xe946;" glyph-name="direction" d="M966.912 661.824l-179.136 192c-6.080 6.496-14.528 10.144-23.424 10.144h-267.136l-0.992 66.016c0 16.544-14.336 30.016-32 30.016s-30.016-13.44-30.016-30.016l-0.96-66.016h-352.768c-17.664 0-32-14.304-32-32v-384c0-17.664 14.336-32 32-32h352.352v-450.016c0-16.544 14.336-30.016 32-30.016s32 13.44 32 30.016v450.016h267.552c8.864 0 17.344 3.68 23.424 10.144l179.136 192c11.456 12.288 11.456 31.36 0 43.68zM750.464 480h-637.952v320h637.952l149.28-160z" />
<glyph unicode="&#xe947;" glyph-name="directions" d="M1017.056 773.952l-99.712 111.328c-6.048 6.848-14.784 10.752-23.936 10.752h-350.24v33.984c0 16.544-14.336 30.016-32 30.016s-32-13.44-32-30.016v-33.984h-255.808c-17.696 0-32-14.336-32-32v-223.648c0-17.696 14.304-32 32-32h255.808v-64.096h-348.576c-9.152 0-17.856-3.904-23.936-10.752l-99.68-113.312c-10.752-12.128-10.752-30.368 0-42.496l99.68-112.288c6.112-6.848 14.784-9.76 23.936-9.76h348.576v-289.664c0-16.544 14.336-30.016 32-30.016s32 13.44 32 30.016v289.696h256.48c17.664 0 32 14.336 32 32v224.608c0 17.696-14.336 32-32 32h-256.448v64.096h350.24c9.152 0 17.856 3.904 23.936 10.752l99.712 112.32c10.72 12.096 10.72 30.368 0 42.496v0zM767.648 319.68h-622.688l-71.296 79.264 71.296 81.312h622.688v-160.576zM879.040 672.352h-623.68v159.648h623.68l71.264-79.328z" />
<glyph unicode="&#xe948;" glyph-name="disc" d="M512 960c-282.784 0-512-229.216-512-512s229.216-512 512-512 512 229.216 512 512-229.216 512-512 512zM960 448c0-66.304-14.592-129.248-40.576-185.92l-283.232 151.552c3.040 10.976 4.768 22.464 4.768 34.4 0 71.232-57.76 129.024-129.024 129.024-14.624 0-28.64-2.528-41.696-7.040l-169.6 272.896c63.008 33.856 134.944 53.088 211.328 53.088 247.040 0 448-200.96 448-448zM512 512.992c35.84 0 65.024-29.152 65.024-65.024s-29.184-64.992-64.992-64.992-64.992 29.184-64.992 64.992 29.152 64.992 64.992 64.992zM246.56 808.64l170.176-273.824c-0.768-0.832-1.536-1.664-2.304-2.528l-283.168 151.52c30.208 48.576 69.376 90.976 115.264 124.832zM64 448c0 63.68 13.44 124.256 37.504 179.168l284.352-152.16c-1.856-8.736-2.88-17.728-2.88-27.008 0-71.232 57.76-128.992 129.024-128.992 12.384 0 24.352 1.856 35.712 5.12l170.208-273.792c-61.664-32.064-131.648-50.304-205.888-50.304-247.040 0-448 200.96-448 448zM772.448 83.84l-169.504 272.672c0.48 0.48 0.96 1.024 1.472 1.536l284.288-152.16c-30.752-47.616-70.24-89.088-116.256-122.080z" />
<glyph unicode="&#xe949;" glyph-name="dislike" d="M415.424 959.776c290.816 0 293.088-12.064 329.088-39.2 19.104-14.368 55.136-24.32 186.816-32.896 9.568-0.608 18.656-4.288 24.736-11.68 2.784-3.424 68.576-99.36 68.576-253.024 0-151.424-47.072-220.48-49.088-223.712-5.856-9.344-16.096-15.008-27.136-15.008-108.096 0-257.984-138.016-358.752-378.912-17.408-41.664-21.024-69.056-85.024-69.056-36.384 0-77.184 26.048-97.376 59.52-41.312 68.32-20.352 215.072-0.896 293.472-66.016-0.544-185.472-1.44-242.304-1.44-79.072 0-131.392 47.168-133.024 116.096-0.512 22.752 2.464 51.84 9.056 66.816-17.376 17.376-39.84 43.552-40.832 77.28-1.216 43.52 27.264 76.64 45.44 95.648-4.16 12.672-12.512 29.44-11.712 49.504 2.016 49.344 40.096 81.152 63.84 97.728-1.952 13.44-3.488 38.944 0.832 58.624 17.12 78.624 132.416 110.24 317.696 110.24zM914.4 822.752c-114.688 9.472-176 22.336-208.32 46.688-25.024 18.816-21.152 26.304-290.624 26.304-82.176 0-242.88-3.424-255.232-59.808-4.928-22.56 18.88-44.736 18.976-44.896 6.496-16.064-0.768-34.848-16.576-41.76-0.256-0.128-64.128-23.040-65.6-58.752-0.96-22.816 14.72-36.544 15.072-37.088 9.312-14.464 5.888-34.304-8.224-44.16-0.16-0.128-41.568-25.216-40.544-59.424 0.8-27.136 36.576-46.304 37.664-46.912 8-4.576 13.824-12.48 15.648-21.568 1.824-9.024-0.224-18.528-5.824-25.824 0 0-16.288-25.856-15.68-50.112 1.184-51.936 57.024-53.568 68.992-53.568 80.704 0 288.032 0.832 288.032 0.832 11.2 0.032 20.864-5.248 26.848-14.208s6.464-20.064 2.912-30.24c-31.232-90.048-48.704-231.264-19.712-279.52 8.544-14.24 10.496-28.448 42.496-28.448 4.448 0 14.976 3.52 25.984 29.76 106.976 255.808 266.688 403.808 397.536 417.152 11.264 25.728 32.48 79.040 32.48 175.776-0.032 98.72-31.328 175.104-46.368 199.84z" />
<glyph unicode="&#xe94a;" glyph-name="doc" d="M560 960h-352c-35.328 0-64-28.64-64-64v-896c0-35.36 28.672-64 64-64h608c35.36 0 64 28.64 64 64v640zM816 613.472v-5.472h-288v288h5.504zM208 0v896h256v-352h352v-544h-608z" />
<glyph unicode="&#xe94b;" glyph-name="docs" d="M768 960h-352c-35.328 0-64-28.64-64-64h352v-256h256v-512h-224v-64h224c35.36 0 64 28.64 64 64v576zM768 704v165.504l165.472-165.504h-165.472zM64 832c-35.36 0-64-28.672-64-64v-768c0-35.36 28.64-64 64-64h544c35.36 0 64 28.64 64 64v576l-256 256.032h-352zM608 0h-544v768h288v-256h256v-512zM416 576v165.504l165.472-165.504h-165.472z" />
<glyph unicode="&#xe94c;" glyph-name="dollar" d="M909.44 396.16c-36.811 87.512-121.84 147.84-220.959 147.84-0.169 0-0.338 0-0.507-0.001h-351.974c-26.51 0-48 21.49-48 48s21.49 48 48 48v0h528c17.673 0 32 14.327 32 32v0 128c0 17.673-14.327 32-32 32v0h-128v96c0 17.673-14.327 32-32 32v0h-128c-17.673 0-32-14.327-32-32v0-96h-64v96c0 17.673-14.327 32-32 32v0h-128c-17.673 0-32-14.327-32-32v0-100.8c-110.216-23.342-191.766-119.714-192-235.174v-0.026c-0.001-0.267-0.002-0.584-0.002-0.9 0-33.074 6.827-64.553 19.148-93.106l-0.586 1.526c36.984-87.351 121.985-147.52 221.040-147.52 0.141 0 0.281 0 0.422 0h351.978c26.51 0 48-21.49 48-48s-21.49-48-48-48v0h-528c-17.673 0-32-14.327-32-32v0-128c0-17.673 14.327-32 32-32v0h128v-96c0-17.673 14.327-32 32-32v0h128c17.673 0 32 14.327 32 32v0 96h64v-96c0-17.673 14.327-32 32-32v0h128c17.673 0 32 14.327 32 32v0 100.8c110.216 23.342 191.766 119.714 192 235.174v0.026c0.002 0.326 0.003 0.712 0.003 1.098 0 32.896-6.828 64.198-19.144 92.565l0.581-1.504zM608 896h64v-64h-64zM352 896h64v-64h-64zM416 0h-64v64h64zM672 0h-64v64h64zM688 128h-496v64h496c61.856 0 112 50.144 112 112s-50.144 112-112 112v0h-352c-97.202 0-176 78.798-176 176s78.798 176 176 176v0h496v-64h-496c-61.856 0-112-50.144-112-112s50.144-112 112-112v0h352c97.202 0 176-78.798 176-176s-78.798-176-176-176v0z" />
<glyph unicode="&#xe94d;" glyph-name="drawer" d="M956.832 32h-890.24c-35.072 0-66.592 28.704-66.592 64v384c0 6.368 2.752 11.968 6.432 16.96l93.088 343.456c3.776 13.92 16.32 23.584 30.656 23.584h763.072c14.336 0 26.88-9.664 30.656-23.584l92.864-342.688c4.16-5.152 7.232-11.008 7.232-17.728v-384c0-35.296-32.128-64-67.168-64zM960 96v352h-260.16c-15.168-90.688-93.76-160-188.128-160s-172.928 69.312-188.096 160h-259.616v-352h896zM868.96 800h-714.496l-78.016-288h276.288c17.568 0 31.808-14.336 31.808-32 0-70.592 57.056-128 127.168-128 70.144 0 127.168 57.408 127.168 128 0 17.664 14.24 32 31.808 32h276.32l-78.048 288z" />
<glyph unicode="&#xe94e;" glyph-name="dribbble" horiz-adv-x="1023" d="M1021.664 414.272c0-1.248 0.448-2.368 0.32-3.616-0.096-0.64-0.48-1.12-0.576-1.76-15.52-203.808-150.752-374.272-335.232-441.664-2.336-1.184-4.768-1.984-7.392-2.56-52.448-18.24-108.512-28.672-167.104-28.672-282.144 0-511.712 229.696-511.712 512 0 21.504 1.76 42.56 4.352 63.392 0.128 0.864-0.128 1.664 0.064 2.528 0.096 0.416 0.384 0.704 0.48 1.12 21.6 164.16 121.28 303.712 260.192 380.768 2.624 2.176 5.6 3.616 8.704 4.832 71.136 37.664 151.936 59.36 237.92 59.36 130.016 0 248.48-49.184 338.848-129.408 0.256-0.128 0.576-0.128 0.832-0.288 3.776-2.368 6.848-5.408 9.248-8.864 99.904-93.504 162.784-226.112 162.784-373.44 0-11.392-0.992-22.528-1.728-33.728zM954.528 385.472c-104.48 9.088-196.416 2.72-276.832-12.288 25.312-94.336 38.784-203.392 30.624-327.52 130.464 64.256 225.216 190.336 246.208 339.808zM511.68 0c45.344 0 88.96 7.072 130.208 19.68 12.16 129.216-0.256 242.208-26.912 339.648-96.32-25.184-172.768-62.496-229.44-98.24-89.408-56.416-144.864-116.736-170.272-147.936 79.040-70.144 182.688-113.152 296.416-113.152zM63.936 448c0-110.016 40-210.72 105.984-288.768 52.16 62.976 188.48 199.328 425.76 261.92-12.16 34.112-25.952 66.080-40.896 95.904-85.024-39.328-188.352-66.4-312.064-66.4-55.104 0-114.464 5.76-177.76 17.792-0.288-6.816-1.024-13.536-1.024-20.448zM72.224 532.768c189.216-36.704 337.632-9.344 450.944 41.632-88.736 147.744-199.072 232-238.816 259.232-108.384-64.32-187.52-172.96-212.128-300.864zM511.68 896c-57.12 0-111.648-11.008-161.92-30.624 44.736-34.048 114.016-94.592 180.352-184.576 16.8-22.816 33.92-48.544 50.592-76.704 106.72 61.664 175.328 141.664 211.072 192.864-76.768 61.824-174.112 99.040-280.096 99.040zM838.816 752.8c-40.736-56.736-114.624-140.8-226.976-205.952 16.992-33.984 32.832-71.104 46.752-111.36 87.872 16.864 187.68 23.68 300.768 13.824-0.352 117.248-46.272 223.744-120.544 303.488z" />
<glyph unicode="&#xe94f;" glyph-name="drop" d="M510.4-62.688c-193.312 0-350.592 155.136-350.592 345.792 0 222.688 311.648 644.832 324.896 662.72 6.016 8.064 15.424 12.864 25.472 12.928 11.168 0.096 19.552-4.608 25.664-12.576 13.408-17.536 328.352-432.224 328.352-663.072 0-190.688-158.72-345.792-353.792-345.792zM510.752 872.32c-74.4-105.664-286.944-422.048-286.944-589.216 0-155.36 128.576-281.792 286.592-281.792 159.776 0 289.792 126.4 289.792 281.792 0 173.376-214.144 485.024-289.44 589.216z" />
<glyph unicode="&#xe950;" glyph-name="dropbox" d="M1013.003 711.102l-162.074-134.853 129.531-103.497c7.983-6.38 12.44-16.159 11.991-26.355-0.417-10.196-5.707-19.59-14.236-25.233l-146.652-97.629c0.16-1.282 0.769-2.405 0.769-3.719v-159.926c0-10.709-5.354-20.68-14.268-26.612l-288.303-191.924c-1.090-0.737-2.341-1.058-3.495-1.635-1.058-0.545-2.052-1.090-3.174-1.507-3.623-1.347-7.31-2.244-11.093-2.244s-7.503 0.898-11.093 2.244c-1.122 0.417-2.116 0.962-3.206 1.507-1.154 0.577-2.373 0.898-3.463 1.635l-288.303 191.924c-8.913 5.931-14.268 15.903-14.268 26.612v159.926c0 1.315 0.609 2.437 0.737 3.719l-146.62 97.629c-8.529 5.643-13.819 15.037-14.236 25.233-0.449 10.196 4.008 19.975 11.991 26.355l129.531 103.497-162.074 134.853c-7.759 6.477-12.023 16.223-11.478 26.291s5.803 19.301 14.204 24.912l288.303 191.924c11.767 7.887 27.349 7.054 38.282-2.052l171.693-142.869 171.693 142.869c10.901 9.106 26.483 9.939 38.282 2.052l288.271-191.924c8.432-5.611 13.691-14.845 14.236-24.912s-3.719-19.814-11.478-26.291zM906.236 450.116l-107.665 86.023-232.354-154.668 107.665-86.023 232.354 154.668zM544.030 27.73l224.242 149.281v104.362l-78.328-52.133c-5.418-3.591-11.606-5.386-17.794-5.386-7.086 0-14.171 2.373-20.007 7.022l-108.113 86.375v-289.521zM512 422.254l230.559 153.481-230.559 153.481-230.559-153.481 230.559-153.481zM255.727 177.011l224.242-149.281v289.521l-108.146-86.375c-5.803-4.649-12.889-7.022-20.007-7.022-6.156 0-12.344 1.795-17.762 5.386l-78.328 52.133v-104.362zM350.118 295.448l107.665 86.023-232.354 154.668-107.665-86.023 232.354-154.668zM317.671 887.764l-232.707-154.956 140.881-117.219 232.707 154.924-140.881 117.251zM706.329 887.764l-140.881-117.251 232.707-154.924 140.881 117.219-232.707 154.956z" />
<glyph unicode="&#xe951;" glyph-name="earphones" d="M1023.84 355.456c0.096 21.056-3.232 100.512-5.76 123.232-29.12 260.768-240.736 450.016-503.168 450.016-273.344 0-494.816-210.624-509.824-489.888-0.32-6.112-2.56-49.344-2.72-75.072l-0.096-14.336c-1.312-5.92-2.112-12.032-2.112-18.336v-278.656c0-46.88 38.144-85.024 84.992-85.024h86.272c46.88 0 85.024 38.144 85.024 85.024v278.624c0 46.88-38.144 85.024-85.024 85.024h-86.304c-5.888 0-11.648-0.608-17.184-1.76 0.48 10.4 0.928 18.592 1.024 21.056 13.184 244.768 207.136 429.344 445.952 429.344 229.28 0 414.112-165.344 439.552-393.12 1.088-9.504 2.464-33.664 3.552-57.92-6.24 1.44-12.608 2.4-19.232 2.4h-85.28c-46.88 0-85.024-38.144-85.024-85.024v-277.664c0-46.88 38.144-85.024 85.024-85.024h85.28c46.88 0 85.024 38.144 85.024 85.024v277.664c0 5.216-0.64 10.304-1.568 15.232 0.928 2.944 1.536 6.016 1.568 9.216zM85.12 352h86.272c11.584 0 21.024-9.408 21.024-21.024v-278.656c0-11.616-9.44-21.024-21.024-21.024h-86.272c-11.584 0-20.992 9.408-20.992 21.024v278.656c0.032 11.616 9.44 21.024 21.024 21.024zM959.84 53.344c0-11.616-9.44-21.024-21.024-21.024h-85.28c-11.616 0-21.024 9.408-21.024 21.024v277.664c0 11.616 9.408 21.024 21.024 21.024h85.28c11.616 0 21.024-9.408 21.024-21.024v-277.664z" />
<glyph unicode="&#xe952;" glyph-name="earphones-alt" d="M1023.84 387.456c0.096 21.056-3.232 100.48-5.76 123.232-29.12 260.768-240.736 450.016-503.168 450.016-273.344 0-494.816-210.624-509.824-489.888-0.32-6.112-2.56-49.344-2.72-75.072l-0.096-14.336c-1.312-5.92-2.112-12.032-2.112-18.336v-214.656c0-46.88 38.144-85.024 84.992-85.024h86.272c46.88 0 85.024 38.144 85.024 85.024v214.624c0 46.88-38.144 84.992-85.024 84.992h-86.304c-5.888 0-11.648-0.608-17.184-1.728 0.48 10.4 0.928 18.592 1.024 21.056 13.184 244.768 207.136 429.344 445.92 429.344 229.28 0 414.112-165.344 439.552-393.12 1.088-9.504 2.432-33.664 3.552-57.92-6.208 1.44-12.576 2.4-19.2 2.4h-85.28c-46.88 0-85.024-38.144-85.024-85.024v-213.664c0-32.384 18.4-60.256 45.088-74.592l-205.44-80.64v5.216c0 17.664-14.336 32-32 32h-96c-17.664 0-32-14.336-32-32v-32c0-17.664 14.336-32 32-32h96c0.288 0 0.512 0.064 0.8 0.064l57.376 0.224 329.568 129.376c4.32 1.792 8 4.48 10.976 7.648 28.832 13.6 48.992 42.72 48.992 76.672v213.664c0 5.216-0.64 10.304-1.568 15.232 0.864 2.944 1.504 6.016 1.504 9.216zM85.152 384h86.304c11.584 0 21.024-9.408 21.024-21.024v-214.656c0-11.616-9.44-21.024-21.024-21.024h-86.272c-11.584 0-20.992 9.408-20.992 21.024v214.656c0.032 11.616 9.44 21.024 20.992 21.024zM832.544 363.008c0 11.616 9.408 21.024 21.024 21.024h85.28c11.616 0 21.024-9.408 21.024-21.024v-213.664c0-11.616-9.44-21.024-21.024-21.024h-85.28c-11.616 0-21.024 9.408-21.024 21.024v213.664z" />
<glyph unicode="&#xe953;" glyph-name="edge" d="M987.52 514.56c-4.296 140.011-71.156 263.576-173.432 344.224l-0.968 0.736c-80.423 62.473-182.812 100.154-294.002 100.154-22.256 0-44.159-1.51-65.613-4.432l2.495 0.278c-130.015-14.979-242.159-81.291-317.293-177.829l-0.787-1.051c-53.042-69.685-89.704-154.592-102.714-247.091l-0.326-2.829c-0.697-2.981-1.096-6.404-1.096-9.92s0.399-6.939 1.155-10.226l-0.059 0.306c2.607-11.372 11.005-20.301 21.853-23.62l0.227-0.060c2.721-0.786 5.847-1.237 9.078-1.237 8.849 0 16.907 3.389 22.947 8.939l-0.024-0.022c4.987 4.382 9.235 9.445 12.639 15.074l0.161 0.286 2.56 3.52c50.725 67.762 115.879 121.954 191.138 158.635l3.102 1.365c-97.954-73.477-160.657-189.341-160.657-319.85 0-33.332 4.090-65.708 11.796-96.655l-0.578 2.744c37.44-180.16 187.52-305.6 384-320 15.68 0 32-1.6 46.72-1.6 102.074 0.557 198.707 23.256 285.531 63.529l-4.251-1.769c23.446 8.683 39.854 30.852 39.854 56.854 0 1.614-0.063 3.213-0.187 4.795l0.013-0.209c0 32 0 64 0 94.4v49.28c0 7.68 0 15.68 0 23.36 0.244 1.626 0.383 3.502 0.383 5.411 0 21.208-17.192 38.4-38.4 38.4-8.857 0-17.014-2.999-23.511-8.036l0.088 0.065-8-4.16c-40.859-22.514-88.186-41.176-138-53.543l-4.080-0.857c-24.829-6.453-53.332-10.157-82.701-10.157-47.901 0-93.5 9.855-134.881 27.647l2.222-0.85c-47.481 18.457-82.856 58.69-94.202 108.096l-0.198 1.024h548.48c43.52 0 59.52 16 59.52 59.52v32c1.28 32 1.6 63.68 0 95.36zM923.52 420.8v-28.8c-60.48 0-120.96 0-181.76 0h-367.36c-2.71 0.406-5.836 0.638-9.018 0.638-17.42 0-33.214-6.96-44.754-18.25l0.012 0.011c-6.293-9.889-10.030-21.939-10.030-34.861 0-8.044 1.448-15.751 4.098-22.872l-0.148 0.454c15.216-71.833 64.496-129.564 129.759-156.278l1.441-0.522c46.989-20.519 101.74-32.458 159.28-32.458 34.335 0 67.677 4.251 99.528 12.256l-2.808-0.598c51.017 11.972 95.828 28.68 137.758 50.206l-3.358-1.566v-33.92c0-32 0-64 0-96h-1.6c-76.959-37.396-167.409-59.256-262.965-59.256-12.41 0-24.733 0.369-36.96 1.096l1.685-0.080c-165.76 11.84-293.12 117.44-324.48 268.8-5.925 23.643-9.324 50.784-9.324 78.72 0 102.059 45.373 193.52 117.048 255.312l0.436 0.368c-3.65-11.029-7.197-24.906-9.893-39.084l-0.347-2.196c-0.941-3.477-1.481-7.47-1.481-11.589 0-10.764 3.691-20.666 9.875-28.509l-0.074 0.098c8.336-10.021 20.808-16.353 34.76-16.353 0.605 0 1.207 0.012 1.806 0.035l-0.086-0.003h297.28c2.059-0.155 4.459-0.243 6.88-0.243s4.821 0.088 7.198 0.261l-0.318-0.019c0.312-0.007 0.68-0.011 1.049-0.011 14.747 0 28.029 6.274 37.321 16.298l0.030 0.033c5.645 7.944 9.025 17.841 9.025 28.528 0 4.070-0.49 8.026-1.415 11.812l0.070-0.34-1.28 14.080c-2.935 28.32-8.121 54.066-15.493 78.872l0.773-3.032c-16.616 55.932-60.924 98.649-116.633 112.719l-1.127 0.241c-27.761 7.727-59.639 12.168-92.555 12.168-20.655 0-40.902-1.749-60.601-5.107l2.116 0.298c-116.955-17.718-219.388-69.944-299.109-145.816l0.229 0.216c17.222 42.552 38.741 79.289 64.74 112.336l-0.74-0.976c65.059 83.682 160.767 140.872 269.997 154.673l2.003 0.207c16.45 2.305 35.453 3.62 54.764 3.62 96.222 0 184.814-32.669 255.29-87.52l-0.934 0.7c89.036-70.23 146.691-176.824 150.385-297.003l0.015-0.597c1.6-32 1.28-61.44 0.96-91.2zM416 704h-1.6l23.36 4.16c15.555 2.98 33.445 4.685 51.734 4.685 25.16 0 49.566-3.226 72.828-9.288l-2.002 0.443c35.888-8.037 64.028-34.687 74.065-69.059l0.175-0.701c5.469-18.377 9.756-40.117 12.032-62.451l0.128-1.549h-270.080c7.324 28.641 18.305 53.799 32.65 76.629l-0.65-1.109c3.435 5.489 6.56 11.82 9.040 18.466l0.24 0.734 2.24 5.44c1.875 3.948 2.97 8.578 2.97 13.463 0 7.658-2.69 14.687-7.176 20.195l0.046-0.058z" />
<glyph unicode="&#xe954;" glyph-name="emotsmile" d="M781.28 352.832c-16.256 7.264-35.104-0.064-42.272-16.192-0.64-1.408-66.144-144.192-229.44-146.112-0.992 0-2.016-0.032-3.008-0.032-153.664 0-219.936 140.384-222.688 146.4-7.328 16-26.176 23.136-42.304 15.872-16.096-7.264-23.232-26.208-15.968-42.336 3.392-7.552 85.376-183.936 280.832-183.936 1.28 0 2.592 0.032 3.872 0.032 203.872 2.4 283.84 176.672 287.136 184.064 7.264 16.16-0.032 35.072-16.16 42.24zM512 960c-282.784 0-512-229.216-512-512s229.216-512 512-512 512 229.216 512 512-229.216 512-512 512zM512 0c-247.040 0-448 200.96-448 448s200.96 448 448 448 448-200.96 448-448-200.96-448-448-448zM351.488 480.16c35.264 0 63.84 28.576 63.84 63.84s-28.576 63.84-63.84 63.84c-35.264 0-63.84-28.576-63.84-63.84s28.576-63.84 63.84-63.84zM671.488 480.16c35.264 0 63.84 28.576 63.84 63.84s-28.576 63.84-63.84 63.84c-35.264 0-63.84-28.576-63.84-63.84s28.544-63.84 63.84-63.84z" />
<glyph unicode="&#xe955;" glyph-name="energy" d="M595.36 895.296v0zM595.36 895.296l-72.192-379.392 261.568-0.864-356.064-514.304 72.224 417.376-261.568 0.928zM595.392 959.264c-1.728 0-3.456-0.064-5.152-0.192-11.296-0.896-18.784-4.704-27.648-10.656-4.928-3.264-9.44-7.296-13.408-11.936-1.184-1.376-2.272-2.816-3.296-4.288l-358.624-474.624c-14.144-19.424-16.256-45.024-5.376-66.432s32.832-34.976 56.928-35.168l184.736-1.344-58.080-342.208c-5.504-29.408 10.176-58.72 37.76-70.528 8.224-3.52 16.864-5.216 25.376-5.216 20.128 0 36.64 9.408 49.056 26.4l359.040 514.304c14.144 19.424 16.224 45.056 5.376 66.432-10.88 21.408-32.832 34.976-56.928 35.136l-184.736 0.32 57.472 300.864c1.216 4.832 1.824 9.856 1.824 15.040 0 34.624-27.552 62.848-62.048 63.968-0.768 0.032-1.504 0.032-2.272 0.032v0z" />
<glyph unicode="&#xe956;" glyph-name="envelope" d="M928 96h-832c-52.928 0-96 43.072-96 96v512c0 52.928 43.072 96 96 96h832c52.928 0 96-43.072 96-96v-512c0-52.928-43.072-96-96-96zM96 160h832c17.632 0 32 14.336 32 32v501.856l-427.168-366.144c-6.016-5.152-13.408-7.712-20.832-7.712s-14.816 2.56-20.832 7.712l-427.168 366.144v-501.856c0-17.664 14.368-32 32-32zM910.848 736h-797.696l398.848-341.856 398.848 341.856z" />
<glyph unicode="&#xe957;" glyph-name="envelope-letter" horiz-adv-x="1020" d="M924.379-64.064h-828.706c-52.731 0-95.641 43.071-95.641 96.058v480.259c0 0.417 0.225 0.738 0.225 1.123 0.032 1.155 0.417 2.247 0.674 3.37 0.353 2.568 0.802 5.007 1.765 7.414 0.128 0.449 0.16 0.931 0.353 1.348 0.642 1.38 1.637 2.535 2.535 3.787 0.867 1.316 1.252 2.792 2.279 4.012 0.546 0.61 1.252 0.834 1.797 1.38 0.257 0.257 0.417 0.61 0.674 0.867 0.289 0.289 0.417 0.642 0.706 0.899l148.372 129.179v134.764c0 17.684 14.282 32.030 31.87 32.030h159.733l138.134 120.257c12.003 10.399 29.751 10.399 41.755 0l138.166-120.257h159.701c17.62 0 31.87-14.346 31.87-32.030v-134.764l148.404-129.179c0.289-0.257 0.385-0.642 0.706-0.899 0.257-0.257 0.417-0.61 0.674-0.899 0.546-0.514 1.252-0.77 1.765-1.348 1.027-1.187 1.412-2.664 2.215-3.948 0.931-1.284 1.958-2.471 2.6-3.851 0.193-0.449 0.225-0.931 0.353-1.38 0.963-2.375 1.38-4.782 1.733-7.285 0.289-1.155 0.674-2.279 0.706-3.466 0-0.385 0.225-0.706 0.225-1.123v-480.259c0-52.988-42.91-96.058-95.641-96.058zM908.204-0.036l-395.081 351.625c-1.059 0.899-5.167 0.899-6.579-0.321l-394.695-351.304h796.355zM61.172 40.435l228.64 203.478-228.64 200.236v-403.714zM80.492 512.189l78.92-69.099v137.781l-78.92-68.682zM510.042 886.119l-61.685-53.694h123.338l-61.653 53.694zM666.245 770.451c-3.017-0.931-6.066-1.958-9.211-1.958-3.723 0-7.446 0.642-11.008 1.958h-424.383v-381.89l116.278-101.835 126.74 112.811c25.643 22.049 65.087 22.049 90.345 0.321l127.093-113.1 117.24 102.637v381.055h-133.095zM860.64 580.87v-137.781l78.888 69.099-78.888 68.682zM959.811 444.983l-229.57-201.071 229.57-204.312v405.383z" />
<glyph unicode="&#xe958;" glyph-name="envelope-open" d="M1023.296 486.72c-1.376 11.328-5.6 21.728-12.096 30.464h0.16l-0.864 0.864c-3.264 4.32-7.136 8.128-11.424 11.52l-417.28 403.424c-36.224 36.224-99.52 36.288-135.776 0l-417.216-400.256c-9.024-8.384-28.896-31.104-28.896-53.344v-479.52c0-35.168 28.8-64 64-64h896c35.168 0 64 28.832 64 64v478.24c0.224 2.88-0.064 5.76-0.64 8.608zM269.792 233.664l-205.856-189.568v371.168zM335.584 207.296c2.304 1.504 4.48 3.264 6.368 5.408 0.352 0.416 0.64 0.928 0.96 1.344l141.184 130.016c7.232 5.856 15.84 8.928 24.864 8.928 9.184 0 18.368-3.232 24.512-8l383.616-345.088h-806.72zM757.472 229.44l202.496 179.712v-361.856zM103.776 517.184l387.488 370.528c6.080 6.016 14.112 9.376 22.624 9.376s16.576-3.36 22.656-9.376l361.376-344.352h-0.96l54.88-55.776-242.304-215.040-135.264 121.664c-37.664 29.536-91.776 30.816-131.68-1.376l-125.504-115.584-241.792 213.344 27.008 26.592h1.472z" />
<glyph unicode="&#xe959;" glyph-name="equalizer" d="M160.064 572.128v355.872c0 17.664-14.336 32-32 32s-32-14.336-32-32v-355.84c-55.328-14.272-96.416-64.448-96.416-124.16s41.088-109.888 96.416-124.192v-355.808c0-17.664 14.336-32 32-32s32 14.336 32 32v355.84c55.296 14.304 96.32 64.448 96.32 124.16s-41.024 109.856-96.32 124.128zM128.416 383.968c-0.096 0-0.256 0.032-0.352 0.032s-0.256-0.032-0.416-0.064c-35.168 0.192-63.68 28.832-63.68 64.064s28.576 63.84 63.712 64.032c0.128 0 0.256-0.032 0.384-0.032s0.256 0.032 0.352 0.032c35.136-0.224 63.648-28.864 63.648-64.032s-28.512-63.808-63.648-64.032zM544.064 380.128v547.872c0 17.664-14.336 32-32 32s-32-14.336-32-32v-547.84c-55.328-14.272-96.384-64.448-96.384-124.16s41.088-109.888 96.384-124.192v-163.84c0-17.664 14.336-32 32-32s32 14.336 32 32v163.84c55.264 14.304 96.288 64.448 96.288 124.16 0 59.648-41.024 109.824-96.288 124.128zM512.416 191.968c-0.128 0-0.256 0.032-0.384 0.032s-0.256-0.032-0.416-0.064c-35.136 0.192-63.68 28.832-63.68 64.064s28.608 63.872 63.808 64.032c0.128 0 0.224-0.032 0.352-0.032s0.192 0.032 0.288 0.032c35.168-0.192 63.744-28.832 63.744-64.032s-28.544-63.808-63.68-64.032zM928.064 764.128v163.872c0 17.664-14.336 32-32 32s-32-14.336-32-32v-163.84c-55.328-14.272-96.384-64.448-96.384-124.16s41.088-109.92 96.384-124.16v-547.808c0-17.664 14.336-32 32-32s32 14.336 32 32v547.84c55.264 14.304 96.288 64.448 96.288 124.16-0.032 59.648-41.024 109.824-96.288 124.128zM896.416 575.968c-0.128 0-0.224 0.032-0.352 0.032s-0.288-0.032-0.416-0.032c-35.168 0.192-63.712 28.832-63.712 64.032s28.544 63.84 63.68 64.032c0.16 0 0.288-0.032 0.416-0.032s0.256 0.032 0.352 0.032c35.136-0.224 63.648-28.864 63.648-64.032 0.032-35.168-28.48-63.808-63.648-64.032z" />
<glyph unicode="&#xe95a;" glyph-name="euro" d="M96 224h116.8c85.096-171.635 259.102-287.55 460.181-287.55 93.859 0 181.819 25.256 257.455 69.342l-2.436-1.311c7.331 4.244 12.742 11.115 14.987 19.295l0.053 0.225c0.626 2.426 0.986 5.21 0.986 8.079 0 5.96-1.552 11.557-4.273 16.41l0.087-0.169-64 110.72c-5.616 9.717-15.956 16.151-27.799 16.151-5.908 0-11.441-1.601-16.191-4.392l0.15 0.082c-45.648-26.956-100.586-42.883-159.245-42.883-89.111 0-169.638 36.755-227.247 95.932l-0.069 0.071h226.56c17.673 0 32 14.327 32 32v0 128c0 17.673-14.327 32-32 32v0h-318.080c-1.223 9.607-1.921 20.722-1.921 32s0.698 22.393 2.053 33.304l-0.132-1.304h382.080c17.673 0 32 14.327 32 32v0 128c0 17.673-14.327 32-32 32v0h-290.56c57.677 59.248 138.204 96.003 227.315 96.003 58.658 0 113.597-15.926 160.728-43.691l-1.483 0.808c4.593-2.701 10.118-4.296 16.016-4.296 2.954 0 5.814 0.4 8.529 1.149l-0.225-0.053c8.27 2.065 15.111 7.132 19.443 13.95l0.077 0.13 64 110.72c2.634 4.684 4.186 10.281 4.186 16.241 0 2.869-0.36 5.653-1.036 8.312l0.050-0.232c-2.267 8.699-7.669 15.872-14.898 20.397l-0.142 0.083c-73.2 42.775-161.16 68.030-255.019 68.030-201.079 0-375.085-115.915-458.841-284.569l-1.339-2.981h-116.8c-17.673 0-32-14.327-32-32v0-128c0-17.673 14.327-32 32-32v0h64c0-11.2 0-21.76 0-32s0-20.8 0-32h-64c-17.673 0-32-14.327-32-32v0-128c0-17.673 14.327-32 32-32v0zM672 64c0.048 0 0.105 0 0.162 0 59.327 0 115.511 13.454 165.669 37.477l-2.311-0.997 32-55.36c-56.917-28.105-123.915-44.546-194.753-44.546-164.716 0-308.67 88.893-386.505 221.323l-1.142 2.102h75.84c70.382-97.158 183.376-159.706 310.993-160h0.047zM672 896c0.102 0 0.223 0 0.344 0 71.151 0 138.411-16.658 198.094-46.287l-2.598 1.167-32-55.36c-47.773 22.944-103.86 36.348-163.077 36.348-127.931 0-241.25-62.56-311.034-158.756l-0.768-1.112h-75.84c78.72 134.544 222.355 223.583 386.82 224h0.060zM128 608h576v-64h-576zM224 448c0 10.24 0 20.48 0 32h64c0-10.88-1.6-21.44-1.6-32s0-21.12 1.6-32h-64c0 11.52 0 21.76 0 32zM128 352h512v-64h-512z" />
<glyph unicode="&#xe95b;" glyph-name="event" d="M676 97.984c-16 0-28 12.992-28 28.992v142.016c0 16 12 28 28 28h142.016c16 0 28.992-12 28.992-28v-142.016c0-16-12.992-28.992-28.992-28.992h-142.016zM818.016 268.992h-142.016v-142.016h142.016v142.016zM960 864c35.008 0 64-28.992 64-64v-800c0-35.008-28.992-64-64-64h-896c-35.008 0-64 28.992-64 64v800c0 35.008 28.992 64 64 64h256v64c0 18.016 14.016 32 32 32s32-14.016 32-32v-64h256v64c0 18.016 14.016 32 32 32s32-14.016 32-32v-64h256zM64 0h896v800h-256v-32c0-18.016-14.016-32-32-32s-32 14.016-32 32v32h-256v-32c0-18.016-14.016-32-32-32s-32 14.016-32 32v32h-256v-800z" />
<glyph unicode="&#xe95c;" glyph-name="exclamation" d="M480 285.984v482.016c0 18.016 14.016 32 32 32s32-14.016 32-32v-482.016h-64zM480 223.008h64v-60h-64v60zM0 448c0 283.008 228.992 512 512 512s512-228.992 512-512-228.992-512-512-512-512 228.992-512 512zM960.992 448c0 247.008-202.016 448-448.992 448s-448-200.992-448-448 200.992-448 448-448 448.992 200.992 448.992 448z" />
<glyph unicode="&#xe95d;" glyph-name="eye" d="M515.456 638.592c-106.016 0-192-85.984-192-192s85.984-192 192-192 192 85.952 192 192-85.952 192-192 192zM515.456 318.592c-70.592 0-129.472 58.816-129.472 129.408s57.408 128 128 128c70.592 0 128-57.408 128-128s-55.936-129.408-126.528-129.408zM1023.68 455.424c-0.384 1.6-0.192 3.328-0.672 4.896-0.192 0.672-0.64 1.056-0.864 1.632-0.352 0.896-0.256 1.984-0.736 2.848-93.088 213.12-293.664 335.744-507.424 335.744s-418.368-122.432-511.488-335.552c-0.384-0.896-0.32-1.824-0.672-2.848-0.224-0.64-0.672-0.96-0.896-1.568-0.48-1.6-0.288-3.296-0.608-4.928-0.576-2.88-1.12-5.696-1.12-8.608s0.544-5.664 1.12-8.576c0.32-1.6 0.096-3.36 0.608-4.864 0.192-0.736 0.672-1.024 0.896-1.664 0.32-0.864 0.256-1.952 0.672-2.848 93.12-213.056 295.744-333.696 509.504-333.696s416.352 120.384 509.44 333.504c0.48 0.928 0.384 1.856 0.736 2.88 0.224 0.544 0.64 0.96 0.832 1.6 0.48 1.568 0.352 3.264 0.672 4.928 0.576 2.88 1.088 5.664 1.088 8.64 0 2.816-0.544 5.6-1.12 8.512zM512 159.392c-181.28 0-359.744 95.552-447.424 287.68 86.848 191.456 267.68 289.504 449.408 289.504 181.696 0 358.496-98.144 445.376-289.696-86.816-191.424-265.632-287.488-447.392-287.488z" />
<glyph unicode="&#xe95e;" glyph-name="eyeglasses" d="M1015.936 384.768c0-63.264 0-255.808-222.144-255.808h-39.68c-1.888 0-3.712 0.16-5.504 0.48-115.104 8.288-179.168 122.080-200.48 202.56-3.648 4.192-6.592 9.088-7.648 14.784-2.464 1.696-10.848 6.016-32.288 6.016-21.472 0-29.856-4.32-32.288-6.016-1.088-5.696-4-10.592-7.68-14.784-21.312-80.48-85.376-194.272-200.48-202.56-1.792-0.32-3.616-0.48-5.504-0.48h-39.648c-222.144 0-222.144 192.544-222.144 255.808 0 7.776 1.376 14.176 2.272 21.056-3.072 8.448-2.944 17.952 1.728 26.432l158.656 287.776c4.416 6.784 31.648 45.248 81.888 47.712 44.096 1.28 86.432-23.104 128.928-74.816 11.2-13.6 9.344-33.76-4.16-44.992-13.536-11.36-33.504-9.376-44.672 4.192-28.32 34.432-56.288 52.672-76.992 51.712-18.848-0.896-30.848-17.088-30.976-17.248l-99.936-181.44c30.336 5.248 65.312 7.52 105.408 7.52 91.264 0 222.016-27.424 248.672-100.288 10.496 2.528 22.24 4.352 36.928 4.352 14.656 0 26.4-1.824 36.896-4.352 26.656 72.864 157.408 100.288 248.704 100.288 40.032 0 75.008-2.272 105.344-7.488l-100.32 181.92c-2.816 3.552-14.080 16.224-31.072 16.768-21.376-0.384-48.416-17.664-76.48-51.744-11.136-13.6-31.104-15.584-44.64-4.192-13.536 11.232-15.392 31.392-4.192 44.992 42.528 51.712 85.344 76.064 128.96 74.816 50.24-2.464 77.472-40.928 80.416-45.312l160.128-290.176c4.672-8.48 4.768-17.984 1.696-26.432 0.896-6.88 2.304-13.28 2.304-21.056zM222.592 448.704c-158.688 0-158.688-32.512-158.688-63.936 0-99.648 19.232-191.84 158.688-191.84h31.712c104.128 0 158.688 142.528 158.688 191.84 0 28.768-87.872 63.936-190.4 63.936zM793.792 448.704c-102.56 0-190.4-35.168-190.4-63.936 0-49.312 54.528-191.84 158.656-191.84h31.744c139.456 0 158.656 92.192 158.656 191.84 0 31.424 0 63.936-158.656 63.936z" />
</font>
</defs>
</svg>
