<?xml version="1.0" standalone="no"?>
<!DOCTYPE svg PUBLIC "-//W3C//DTD SVG 1.1//EN" "http://www.w3.org/Graphics/SVG/1.1/DTD/svg11.dtd" >
<!--
2013-9-30: Created.
-->
<svg>
<metadata>
Created by iconfont
</metadata>
<defs>

<font id="obicon" horiz-adv-x="1024" >
  <font-face
    font-family="obicon"
    font-weight="500"
    font-stretch="normal"
    units-per-em="1024"
    ascent="896"
    descent="-128"
  />
    <missing-glyph />
    
    <glyph glyph-name="socket-square" unicode="&#58937;" d="M153.842831-25.322479000000044l716.314339 0c28.14092 0 51.16531 23.024389 51.16531 51.16531l0 716.314339c0 28.14092-23.024389 51.16531-51.16531 51.16531l-716.314339 0c-28.14092 0-51.16531-23.024389-51.16531-51.16531l0-716.314339C102.677521-2.298090000000002 125.70191-25.322479000000044 153.842831-25.322479000000044zM140.028197 727.318206c0 15.758915 12.893658 28.652574 28.652574 28.652574l686.637436 0c15.758915 0 28.652574-12.893658 28.652574-28.652574l0-686.637436c0-15.758915-12.893658-28.652574-28.652574-28.652574l-686.637436 0c-15.758915 0-28.652574 12.893658-28.652574 28.652574L140.028197 727.318206zM524.189623 439.110155l-24.379247 0c-10.601452 0-19.274996 8.673543-19.274996 19.274996l0 170.193217c0 10.601452 8.673543 19.274996 19.274996 19.274996l24.379247 0c10.601452 0 19.274996-8.674567 19.274996-19.274996l0-170.193217C543.464619 447.783699 534.791076 439.110155 524.189623 439.110155zM656.57577 439.110155l-24.379247 0c-10.601452 0-19.274996 8.673543-19.274996 19.274996l0 170.193217c0 10.601452 8.673543 19.274996 19.274996 19.274996l24.379247 0c10.601452 0 19.274996-8.674567 19.274996-19.274996l0-170.193217C675.851788 447.783699 667.177222 439.110155 656.57577 439.110155zM613.841479 532.282185l0 22.400173c0 30.563086 25.006534 55.56962 55.56962 55.56962l12.880355 0c30.563086 0 55.56962-25.006534 55.56962-55.56962l0-22.400173c0-30.563086-25.006534-55.56962-55.56962-55.56962l-12.880355 0C638.848013 476.712565 613.841479 501.719098 613.841479 532.282185zM367.423207 647.854387l24.379247 0c10.601452 0 19.274996-8.674567 19.274996-19.274996l0-170.193217c0-10.601452-8.673543-19.274996-19.274996-19.274996l-24.379247 0c-10.601452 0-19.274996 8.673543-19.274996 19.274996l0 170.193217C348.148212 639.1798200000001 356.821755 647.854387 367.423207 647.854387zM410.157497 554.682357l0-22.400173c0-30.563086-25.006534-55.56962-55.56962-55.56962l-12.880355 0c-30.563086 0-55.56962 25.006534-55.56962 55.56962l0 22.400173c0 30.563086 25.006534 55.56962 55.56962 55.56962l12.880355 0C385.150964 610.250954 410.157497 585.245444 410.157497 554.682357zM420.260599 154.77020200000004l-21.112853-12.189623c-9.181103-5.300726-21.029966-2.12643-26.330692 7.055696l-85.096097 147.391908c-5.300726 9.181103-2.12643 21.029966 7.055696 26.330692l21.112853 12.189623c9.181103 5.300726 21.029966 2.12643 26.330692-7.055696l85.096097-147.391908C432.617022 171.918767 429.441703 160.07092799999998 420.260599 154.77020200000004zM603.738377 154.77020200000004l21.112853-12.189623c9.181103-5.300726 21.029966-2.12643 26.330692 7.055696l85.09712 147.391908c5.300726 9.181103 2.125407 21.029966-7.055696 26.330692l-21.112853 12.189623c-9.181103 5.300726-21.029966 2.12643-26.330692-7.055696l-85.096097-147.391908C591.382978 171.918767 594.557274 160.07092799999998 603.738377 154.77020200000004z"  horiz-adv-x="1024" />

    
    <glyph glyph-name="curtain" unicode="&#58939;" d="M408.822741 528.296642c44.568522 61.597172 70.148865 122.883112 82.580711 158.1751 5.227457 14.841841-5.819206 30.390095-21.555836 30.390095l-156.12343 0c-10.586982 0-19.803113-7.264793-22.21925-17.572281-15.30664-65.275639-110.037656-204.634556-141.36554-317.182538-37.868859-136.04799 30.635804-295.599059 41.274999-365.836994 1.698463-11.21354 11.258586-19.545119 22.600099-19.545119l76.867979 0c14.236783 0 25.029546 12.881289 22.479292 26.887719-3.894486 21.395102-12.32742 53.879865-30.54571 91.262425-39.531489 81.115672-109.041511 182.41121-97.868923 217.79022C194.160191 361.84115299999996 322.828724 409.445203 408.822741 528.296642zM144.202454 109.72949600000004c-19.78878 103.726009-22.236655 226.187321-7.275031 289.38672 24.676339 104.241998 98.701262 219.033097 113.213444 290.463744 2.866604 14.109833-8.009086 27.280854-22.406603 27.280854l-117.302449 0c-12.61408 0-22.839665-10.225585-22.839665-22.839665l0-674.457601c0-12.61408 10.225585-22.839665 22.839665-22.839665l33.747093 0c14.913506 0 25.794315 14.047382 22.128133 28.503255C160.423336 48.422056 150.535601 76.53115400000002 144.202454 109.72949600000004zM615.616464 528.296642c-44.568522 61.597172-70.148865 122.883112-82.580711 158.1751-5.227457 14.841841 5.819206 30.390095 21.555836 30.390095l156.12343 0c10.586982 0 19.803113-7.264793 22.21925-17.572281 15.30664-65.275639 110.037656-204.634556 141.36554-317.182538 37.868859-136.04799-30.635804-295.599059-41.274999-365.836994-1.698463-11.21354-11.258586-19.545119-22.600099-19.545119l-76.867979 0c-14.236783 0-25.029546 12.881289-22.479292 26.887719 3.894486 21.395102 12.32742 53.879865 30.54571 91.262425 39.531489 81.115672 109.041511 182.41121 97.868923 217.79022C830.279014 361.84115299999996 701.610481 409.445203 615.616464 528.296642zM880.236751 109.72949600000004c19.78878 103.726009 22.236655 226.187321 7.275031 289.38672-24.676339 104.241998-98.701262 219.033097-113.213444 290.463744-2.866604 14.109833 8.009086 27.280854 22.407627 27.280854l117.302449 0c12.61408 0 22.839665-10.225585 22.839665-22.839665l0-674.457601c0-12.61408-10.225585-22.839665-22.839665-22.839665l-33.747093 0c-14.913506 0-25.794315 14.047382-22.128133 28.503255C864.014845 48.422056 873.90258 76.53115400000002 880.236751 109.72949600000004zM916.371315 730.322589l-808.304449 0c-11.261658 0-20.475741 9.214083-20.475741 20.475741l0 0c0 11.261658 9.214083 20.475741 20.475741 20.475741l808.304449 0c11.261658 0 20.475741-9.214083 20.475741-20.475741l0 0C936.847056 739.536672 927.632972 730.322589 916.371315 730.322589z"  horiz-adv-x="1025" />

    
    <glyph glyph-name="ac-fill" unicode="&#58954;" d="M951.97351 541.372451c0 14.518324-11.877977 26.396302-26.396302 26.396302l-825.616688 0c-14.518324 0-26.396302-11.879001-26.396302-26.396302l0-205.082975c0-0.754531 0.039928-1.499848 0.102379-2.237998-0.061427-1.620655-0.102379-3.247453-0.102379-4.88244l0 0c0-70.915682 58.022107-128.937789 128.937789-128.937789l620.533713 0c70.915682 0 128.937789 58.022107 128.937789 128.937789l0 0c0 1.634988-0.040951 3.261786-0.102379 4.88244 0.063475 0.739174 0.102379 1.483467 0.102379 2.237998L951.97351 541.372451zM864.974133 233.16443000000004c-19.824612-11.637387-44.782493-18.598116-71.816614-18.598116L232.380209 214.56631400000003c-27.034121 0-51.993025 6.960728-71.816614 18.598116-4.676659 2.745797-1.455825 9.87545 3.729656 8.28858 19.430454-5.948203 43.597972-9.486411 69.712732-9.486411l557.526786 0c26.11476 0 50.282277 3.538208 69.712732 9.486411C866.429959 243.03988000000004 869.650793 235.90920300000005 864.974133 233.16443000000004zM904.738022 296.46927800000003c-3.76856-4.991986-8.647929-11.895382-13.948075-13.759698-7.398909-2.60349-32.888135-0.786268-32.888135-0.786268l-207.577944 0-272.770656 0-207.577944 0c0 0-25.489226-1.818246-32.888135 0.786268-5.300146 1.86534-10.179515 8.767712-13.948075 13.759698-3.60373 4.773919-4.003007 10.555245-0.665462 15.430518 2.261546 3.303761 6.172412 6.135556 12.935549 6.135556l242.144066 0 272.770656 0 242.144066 0c6.762113 0 10.674004-2.831795 12.935549-6.135556C908.740006 307.02452300000004 908.340729 301.243197 904.738022 296.46927800000003zM917.106394 374.27402300000006c0-18.018652-14.742534-32.761186-32.761186-32.761186l-743.152688 0c-18.018652 0-32.761186 14.742534-32.761186 32.761186l0 137.187465c0 18.018652 14.742534 32.761186 32.761186 32.761186l743.152688 0c18.018652 0 32.761186-14.742534 32.761186-32.761186L917.106394 374.27402300000006zM869.060068 529.99101l-712.582407 0c-17.448403 0-31.724089-14.275687-31.724089-31.724089l0-115.480108c0-17.448403 14.275687-31.724089 31.724089-31.724089l712.582407 0c17.448403 0 31.724089 14.275687 31.724089 31.724089l0 115.480108C900.784157 515.714299 886.50847 529.99101 869.060068 529.99101zM730.681938 383.06323499999996c-8.481052 0-15.355782 6.87473-15.355782 15.355782 0 8.481052 6.87473 15.355782 15.355782 15.355782 8.481052 0 15.355782-6.875754 15.355782-15.355782C746.038744 389.938989 739.16299 383.06323499999996 730.681938 383.06323499999996zM789.034729 383.06323499999996c-8.481052 0-15.355782 6.87473-15.355782 15.355782 0 8.481052 6.87473 15.355782 15.355782 15.355782s15.355782-6.875754 15.355782-15.355782C804.391535 389.938989 797.515781 383.06323499999996 789.034729 383.06323499999996zM855.833763 374.618015c-13.145426 0-23.802025 10.656599-23.802025 23.802025 0 13.145426 10.656599 23.802025 23.802025 23.802025 13.145426 0 23.802025-10.656599 23.802025-23.802025C879.635788 385.274615 868.979188 374.618015 855.833763 374.618015z"  horiz-adv-x="1025" />

    
    <glyph glyph-name="socket-line" unicode="&#58983;" d="M514.412956 758.625236c50.634214 0 99.733469-9.908674 145.935744-29.449729 44.64378-18.883069 84.746126-45.922912 119.192659-80.369446 34.446533-34.446533 61.486376-74.54888 80.369446-119.192659 19.541055-46.201252 29.449729-95.30153 29.449729-145.935744s-9.908674-99.733469-29.449729-145.935744c-18.883069-44.64378-45.922912-84.746126-80.369446-119.192659-34.446533-34.446533-74.54888-61.486376-119.192659-80.369446-46.202275-19.542078-95.30153-29.449729-145.935744-29.449729s-99.733469 9.908674-145.935744 29.449729c-44.64378 18.883069-84.746126 45.922912-119.192659 80.369446-34.446533 34.446533-61.486376 74.54888-80.369446 119.192659-19.542078 46.201252-29.449729 95.30153-29.449729 145.935744s9.908674 99.733469 29.449729 145.935744c18.883069 44.64378 45.922912 84.746126 80.369446 119.192659 34.446533 34.446533 74.54888 61.486376 119.192659 80.369446C414.678464 748.7165620000001 463.778742 758.625236 514.412956 758.625236M514.412956 795.464259c-227.423663 0-411.786601-184.362938-411.786601-411.786601s184.362938-411.786601 411.786601-411.786601c227.423663 0 411.786601 184.362938 411.786601 411.786601S741.836619 795.464259 514.412956 795.464259L514.412956 795.464259zM525.612019 616.978169l-22.399149 0c-9.740852 0-17.71036-7.969509-17.71036-17.709337l0-156.373467c0-9.740852 7.969509-17.71036 17.71036-17.71036l22.399149 0c9.740852 0 17.71036 7.969509 17.71036 17.71036l0 156.373467C543.322379 609.00866 535.352871 616.978169 525.612019 616.978169zM624.849184 425.186028l22.400173 0c9.740852 0 17.71036 7.969509 17.71036 17.71036l0 16.839527 5.916756 0c28.081569 0 51.056839 22.975271 51.056839 51.056839l0 20.580734c0 28.081569-22.975271 51.056839-51.056839 51.056839l-5.916756 0 0 16.839527c0 9.740852-7.969509 17.709337-17.71036 17.709337l-22.400173 0c-9.740852 0-17.709337-7.969509-17.709337-17.709337l0-156.373467C607.138824 433.155537 615.108333 425.186028 624.849184 425.186028zM357.949438 459.734892l5.916756 0 0-16.839527c0-9.740852 7.969509-17.71036 17.71036-17.71036l22.400173 0c9.740852 0 17.71036 7.969509 17.71036 17.71036l0 156.373467c0 9.740852-7.969509 17.709337-17.71036 17.709337l-22.400173 0c-9.740852 0-17.71036-7.969509-17.71036-17.709337l0-16.839527-5.916756 0c-28.081569 0-51.056839-22.975271-51.056839-51.056839l0-20.580734C306.892599 482.711186 329.86787 459.734892 357.949438 459.734892zM358.419136 323.55023300000005c-4.870938 8.436136-15.756869 11.352559-24.193005 6.481621l-19.398816-11.200086c-8.435113-4.869914-11.352559-15.756869-6.482645-24.191982l78.186733-135.422296c4.869914-8.436136 15.756869-11.352559 24.191982-6.481621l19.398816 11.199063c8.435113 4.869914 11.352559 15.756869 6.482645 24.193005L358.419136 323.55023300000005zM713.99655 318.83279100000004l-19.398816 11.200086c-8.436136 4.870938-19.322068 1.953492-24.193005-6.481621l-78.186733-135.422296c-4.869914-8.436136-1.953492-19.322068 6.482645-24.193005l19.398816-11.199063c8.435113-4.870938 19.322068-1.953492 24.191982 6.481621l78.186733 135.422296C725.350133 303.075923 722.432687 313.96287700000005 713.99655 318.83279100000004z"  horiz-adv-x="1024" />

    
    <glyph glyph-name="upgrade" unicode="&#58927;" d="M276.8 446.72C193.6 440.96 128 372.48 128 288c0-88.3264 71.6736-160 160-160l416 0c105.92 0 192 86.0736 192 192 0 98.88-74.88 180.48-171.2 190.72C684.8 587.52 604.48 640 512 640 395.5136 640 298.5472 557.12 276.8 446.72L276.8 446.72zM288 192c-53.1264 0-96 42.8736-96 96s42.8736 96 96 96l48 0 0 16C336 497.28 414.7136 576 512 576c80.6336 0 148.16-54.0864 169.28-128L704 448c70.72 0 128-57.28 128-128 0-70.7264-57.28-128-128-128L288 192 288 192zM288 192M460.8 294.4l102.4 0 0-102.4-102.4 0 0 102.4ZM416 291.1232L512 393.5232 608 291.1232Z"  horiz-adv-x="1024" />

    
    <glyph glyph-name="wifi-off" unicode="&#58930;" d="M631.391181 399.562441c-34.55091 24.260543-75.195609 37.084617-117.542066 37.084617-87.38421 0-165.198459-55.484685-193.629999-138.065496-5.519714-16.031115 3.00238-33.500998 19.033495-39.020712 3.310396-1.13894 6.680143-1.680269 9.995655-1.680269 12.739139 0 24.645306 7.993045 29.025057 20.712741 19.904329 57.812707 74.388221 96.655364 135.576815 96.655364 29.653367 0 58.097186-8.967232 82.259492-25.933649 23.658839-16.612353 41.566698-39.606043 51.786457-66.49239 6.02318-15.847943 23.754007-23.812335 39.602973-17.789155 15.847943 6.025227 23.813359 23.756053 17.788132 39.603996C690.687682 343.04216899999994 665.134703 375.867786 631.391181 399.562441zM704.323237 559.379333c-57.594743 33.567513-123.459846 51.309596-190.475146 51.309596-67.671239 0-134.096091-18.070564-192.092993-52.257178-56.268538-33.168424-103.295598-80.580247-135.997394-137.111774-8.489348-14.676257-3.475148-33.455973 11.20111-41.945321 4.840238-2.799766 10.126638-4.131087 15.343453-4.131087 10.599406 0 20.912285 5.497201 26.601868 15.332197 27.418466 47.39852 66.849524 87.151919 114.029056 114.962312 48.557926 28.622898 104.201224 43.75248 160.9149 43.75248 56.164161 0 111.338784-14.854313 159.560042-42.957371 46.835701-27.29567 86.185918-66.385966 113.796766-113.044636 8.634658-14.591323 27.464515-19.420305 42.054815-10.785647 14.591323 8.634658 19.420305 27.462468 10.785647 42.053792C807.114344 480.204086 760.182452 526.824893 704.323237 559.379333zM972.243219 539.99382C869.144096 692.599474 697.782264 783.707494 513.848091 783.707494c-93.261057 0-185.464015-23.667026-266.64085-68.443835-78.629825-43.370787-146.290831-106.010429-195.668425-181.145663-9.312086-14.168698-5.373381-33.203216 8.795317-42.515303 5.197372-3.414773 11.045567-5.047969 16.83134-5.047969 9.989515 0 19.786649 4.870938 25.683962 13.842263 91.316775 138.953725 244.962108 221.911112 410.999678 221.911112 163.508981 0 315.852668-81.004919 407.518391-216.687134 9.491165-14.048971 28.574802-17.744129 42.62275-8.251941C978.040249 506.861212 981.734384 525.944849 972.243219 539.99382zM626.420983 217.05373399999996c-11.988032 11.990079-31.426757 11.990079-43.414789 0l-68.470441-68.470441-68.469418 68.470441c-11.989055 11.989055-31.425733 11.989055-43.415812 0-11.989055-11.989055-11.989055-31.425733 0-43.414789l68.470441-68.470441-68.470441-68.470441c-11.989055-11.989055-11.989055-31.425733 0-43.414789 5.994528-5.994528 13.851473-8.991792 21.707394-8.991792s15.712867 2.997264 21.707394 8.991792l68.469418 68.470441 68.470441-68.470441c5.994528-5.994528 13.849426-8.991792 21.707394-8.991792 7.855922 0 15.71389 2.998287 21.707394 8.991792 11.989055 11.989055 11.989055 31.425733 0 43.414789l-68.470441 68.470441 68.470441 68.470441C638.410038 185.62800000000004 638.410038 205.065701 626.420983 217.05373399999996z"  horiz-adv-x="1024" />

    
    <glyph glyph-name="board" unicode="&#59074;" d="M706.132992 675.712c20.620288 0 37.332992-16.714752 37.332992-37.332992s-16.713728-37.332992-37.332992-37.332992c-20.61824 0-37.33504 16.714752-37.33504 37.332992s16.7168 37.332992 37.33504 37.332992zM317.868032 750.379008c12.368896 0 22.398976-10.029056 22.398976-22.4 0-12.371968-10.029056-22.4-22.398976-22.4-12.371968 0-22.401024 10.028032-22.401024 22.4 0 12.36992 10.029056 22.4 22.401024 22.4zM519.467008 631.061504c82.473984 0 149.331968-66.857984 149.331968-149.332992s-66.857984-149.332992-149.331968-149.332992-149.332992 66.857984-149.332992 149.332992 66.859008 149.332992 149.332992 149.332992zM452.267008 750.379008h134.4c12.370944 0 22.4-10.029056 22.4-22.4 0-12.371968-10.029056-22.4-22.4-22.4h-134.4c-12.371968 0-22.4 10.028032-22.4 22.4 0 12.36992 10.027008 22.4 22.4 22.4zM825.344 787.2C825.344 811.9418880000001 805.540864 831.488 780.795904 831.488H243.204096C218.459136 831.488 198.656 811.9418880000001 198.656 787.2v-806.4c0-24.741888 19.803136-45.312 44.548096-45.312h537.592832C805.540864-64.51199999999994 825.344-43.94188799999995 825.344-19.200000000000045v806.4zM780.288-19.456000000000017H242.688V787.456h537.6v-806.912zM377.6 227.20000000000005c-20.61824 0-37.332992-16.714752-37.332992-37.332992 0-20.620288 16.714752-37.332992 37.332992-37.332992s37.332992 16.713728 37.332992 37.332992c0 20.61824-16.714752 37.332992-37.332992 37.332992z m0-59.732992c-12.370944 0-22.4 10.028032-22.4 22.4 0 12.370944 10.029056 22.4 22.4 22.4s22.4-10.029056 22.4-22.4c0-12.372992-10.029056-22.4-22.4-22.4zM512 227.20000000000005c-20.61824 0-37.332992-16.714752-37.332992-37.332992 0-20.620288 16.714752-37.332992 37.332992-37.332992 20.61824 0 37.332992 16.713728 37.332992 37.332992 0 20.61824-16.714752 37.332992-37.332992 37.332992z m0-59.732992c-12.370944 0-22.4 10.028032-22.4 22.4 0 12.370944 10.029056 22.4 22.4 22.4s22.4-10.029056 22.4-22.4c0-12.372992-10.029056-22.4-22.4-22.4zM640.157696 227.20000000000005c-20.61824 0-37.332992-16.714752-37.332992-37.332992 0-20.620288 16.714752-37.332992 37.332992-37.332992s37.332992 16.713728 37.332992 37.332992c0.001024 20.61824-16.714752 37.332992-37.332992 37.332992z m0-59.732992c-12.370944 0-22.4 10.028032-22.4 22.4 0 12.370944 10.029056 22.4 22.4 22.4s22.4-10.029056 22.4-22.4c0-12.372992-10.028032-22.4-22.4-22.4zM377.6 107.73299199999997c-20.61824 0-37.332992-16.714752-37.332992-37.332992 0-20.620288 16.714752-37.332992 37.332992-37.332992s37.332992 16.713728 37.332992 37.332992-16.714752 37.332992-37.332992 37.332992z m0-59.732992c-12.370944 0-22.4 10.028032-22.4 22.4 0 12.370944 10.029056 22.4 22.4 22.4s22.4-10.029056 22.4-22.4c0-12.371968-10.029056-22.4-22.4-22.4zM512 107.73299199999997c-20.61824 0-37.332992-16.714752-37.332992-37.332992 0-20.620288 16.714752-37.332992 37.332992-37.332992 20.61824 0 37.332992 16.713728 37.332992 37.332992S532.61824 107.73299199999997 512 107.73299199999997z m0-59.732992c-12.370944 0-22.4 10.028032-22.4 22.4 0 12.370944 10.029056 22.4 22.4 22.4s22.4-10.029056 22.4-22.4c0-12.371968-10.029056-22.4-22.4-22.4zM640.157696 107.73299199999997c-20.61824 0-37.332992-16.714752-37.332992-37.332992 0-20.620288 16.714752-37.332992 37.332992-37.332992s37.332992 16.713728 37.332992 37.332992c0.001024 20.619264-16.714752 37.332992-37.332992 37.332992z m0-59.732992c-12.370944 0-22.4 10.028032-22.4 22.4 0 12.370944 10.029056 22.4 22.4 22.4s22.4-10.029056 22.4-22.4c0-12.371968-10.028032-22.4-22.4-22.4z"  horiz-adv-x="1024" />

    
    <glyph glyph-name="steering-wheel" unicode="&#58886;" d="M513.484 876.037c-265.355 0-481.397-220.739-481.397-493.14 0-272.4 216.042-493.141 481.397-493.141 265.357 0 481.399 220.74 481.399 493.141 0.001 272.401-216.041 493.14-481.399 493.14z m116.243-871.215c-2.35-1.176-4.696-1.176-7.045-1.176-10.568 0-21.135 8.222-23.483 18.786l-11.74 59.883c-1.573 7.085-6.323 13.096-12.815 16.302l18.686 152.775c34.049 22.308 57.532 56.358 66.927 95.104l133.666 54.131c4.263-5.204 10.763-8.338 17.795-8.338h1.175l62.229 3.521h1.174c12.915 0 24.659-11.741 23.484-24.654-10.568-177.296-120.938-318.194-270.053-366.334z m15.264 360.461c-3.524-1.174-5.87-4.697-7.046-8.219-7.045-36.399-29.354-69.272-61.056-88.059-3.521-1.176-5.87-4.697-5.87-8.222l-19.96-159.682h-75.285l-19.822 159.682c-1.174 3.524-2.349 5.87-5.872 8.222-32.876 18.786-55.185 51.659-62.229 89.234-1.175 3.521-3.522 7.043-7.045 8.219l-137.439 56.074 20.291 74.108 153.545-20.989c3.523 0 7.044 1.175 9.392 3.524 23.483 22.309 54.011 35.224 86.887 35.224 32.878 0 64.578-12.915 88.062-36.399 2.35-2.349 4.695-3.522 8.22-3.522 0 0 1.174 0 1.174 1.173l154.718 20.999 20.341-74.292-141.006-57.075z m-427.39 27.007c7.098 0 13.654 3.188 17.915 8.479l130.027-53.096c9.394-38.748 32.876-72.799 66.926-95.107l19.598-153.519c-6.959-3.074-12.081-9.319-13.727-16.731l-11.742-59.883c-2.349-11.74-11.742-18.786-23.483-18.786-2.349 0-4.696 0-7.045 1.176-149.116 48.14-259.485 187.862-268.879 367.507-1.174 14.091 10.567 24.656 23.483 24.656h1.174l64.578-4.696h1.175z m556.545 143.245c-6.812-3.027-11.167-8.987-12.471-15.667l-148.388-20.732c-28.179 24.657-63.403 38.748-99.803 38.748-37.571 0-71.622-14.091-99.801-38.748l-146.865 20.826c-1.539 6.644-5.617 12.561-11.645 15.573l-57.533 28.179c-12.916 5.871-16.438 22.309-9.393 34.051 69.275 109.195 189.037 181.992 325.237 181.992 136.201 0 257.137-72.797 325.238-181.992 7.046-11.742 2.351-27.006-9.393-34.051l-55.183-28.179zM513.484 803.239c-7.865 0-15.693-0.258-23.482-0.711V851.943a452.694 452.694 0 0 0 46.967 0v-49.417c-7.789 0.452-15.616 0.713-23.485 0.713z m0-890c-252.439 0-457.915 210.171-457.915 469.657 0 247.304 186.636 449.815 422.691 468.283V801.67c-125.979-10.953-240.114-80.291-309.974-190.992-7.045-11.741-9.394-24.656-5.871-37.572 3.522-12.916 12.916-23.483 24.658-29.353l57.533-28.18-26.273-95.957a9.63 9.63 0 0 1-0.842-2.665l-64.468 4.687h-3.522c-11.95 0-23.891-5.031-32.12-13.222 0.583 10.278 1.481 20.557 2.766 30.835 1.174 3.522-1.175 7.046-4.697 7.046-3.522 1.173-7.044-1.175-7.044-4.699-2.107-16.861-3.218-34.626-3.433-51.685-2.156-5.968-3.021-12.367-2.437-18.764 11.741-183.166 124.458-335.805 287.664-388.64 4.697-1.176 9.393-2.349 14.09-2.349 22.309 0 42.269 16.438 45.791 37.572l11.643 59.372c1.139-0.409 2.346-0.664 3.622-0.664 0 0 1.173 0 1.173 1.173h97.456l11.739-59.881c2.896-13.759 11.168-24.824 22.303-31.295a387.321 387.321 0 0 0-37.563-6.277c-2.349-1.173-4.698-3.523-4.698-7.046 0-2.349 3.523-4.694 5.87-4.694 20.034 2.287 39.79 6.264 59.265 11.768 0.206-0.002 0.41-0.027 0.617-0.027 4.695 0 9.394 1.173 14.09 2.349 164.38 52.835 277.099 204.301 287.665 387.467 1.174 12.916-3.522 25.831-12.915 35.224-9.395 9.393-21.135 15.264-34.05 15.264h-3.524l-62.228-3.521-24.682 90.132c0.243 1.269 0.271 2.556 0.022 3.799a10.1 10.1 0 0 1-1.414 5.151l54.251 26.548c11.741 5.872 21.136 16.438 24.659 29.354 0.097 0.363 0.175 0.729 0.265 1.094 10.214-19.65 18.847-40.072 25.565-60.976 1.174-2.347 3.523-3.522 5.87-3.522h2.35c2.349 1.175 4.695 3.522 3.521 7.045-10.227 29.652-23.124 57.521-38.693 84.387-1.207 3.385-2.79 6.604-4.751 9.545C789.753 720.283 675.684 790.624 548.71 801.668V851.179C784.767 832.712 971.402 630.2 971.402 382.89599999999996c0-259.486-205.475-469.657-457.918-469.657zM559.278 381.721c0 24.659-21.134 45.793-45.794 45.793-24.656 0-45.791-21.134-45.791-45.793 0-24.656 19.96-45.791 45.791-45.791 25.831 0 45.794 21.134 45.794 45.791z m-45.794-37.573c-19.96 0-36.398 16.438-36.398 37.572 0 19.962 16.438 37.573 36.398 37.573 19.961 0 36.399-16.438 36.399-37.573 0.001-21.134-16.438-37.572-36.399-37.572zM481.784 326.53700000000003l-1.174 1.176c-8.219 5.87-18.786 2.347-23.483-5.872-5.871-9.393-2.348-19.96 5.871-24.657l1.173-1.175c3.523-1.174 5.872-2.347 9.395-2.347 5.87 0 11.742 3.521 14.089 8.219 5.869 9.392 2.347 19.96-5.871 24.656zM472.391 435.733c3.522 0 7.044 1.174 9.392 2.348l1.176 1.172c8.218 5.873 10.566 16.439 5.87 24.66-5.87 8.219-16.438 10.567-24.658 5.87l-1.173-1.175c-8.22-5.87-10.567-16.438-5.871-24.655 3.522-4.7 9.392-8.22 15.264-8.22zM545.189 438.081c3.521-1.173 5.87-2.348 9.391-2.348 5.873 0 11.743 3.52 14.089 8.219 4.7 9.393 2.351 19.96-5.87 24.655l-1.174 1.175c-8.221 4.697-18.785 1.175-23.48-7.044-4.7-8.22-1.175-19.961 7.044-24.657zM594.502 402.856c-9.394 0-17.612-8.219-17.612-17.611v-2.349c0-10.567 8.219-17.613 17.612-17.613 9.392 0 17.611 8.221 17.611 18.786v1.176c0 9.392-8.219 17.611-17.611 17.611zM432.469 401.683c-9.393 0-17.612-8.219-17.612-17.613v-2.349c0-9.392 8.219-17.611 17.612-17.611 10.567 0 17.612 8.22 17.612 18.787v1.173c0 9.394-8.219 17.613-17.612 17.613zM545.189 327.71299999999997l-1.176-1.176c-8.22-4.696-10.568-15.264-5.869-23.483 3.521-4.694 9.391-8.219 15.26-8.219 3.524 0 7.049 0 10.57 2.349 8.219 5.87 10.568 16.438 5.87 24.657-5.869 8.219-16.44 10.567-24.655 5.872zM124.844 488.569h1.175c2.347 0 4.696 2.348 5.87 3.522l1.174 3.522c1.174 2.348 0 5.872-3.522 7.044-2.349 1.175-5.871 0-7.045-3.522l-1.174-3.522c-1.175-2.347-0.001-5.871 3.522-7.044zM117.799 454.518c3.522 0 5.871 2.349 5.871 5.872 0 3.523 1.174 8.218 2.348 12.915 0 3.522-1.174 5.872-4.696 7.047-3.522 0-5.871-1.175-7.044-4.699 0-4.695-1.174-9.393-2.349-14.09-0.001-3.521 1.174-5.871 5.87-7.045zM473.565-19.835000000000036l-5.872 1.174c-3.523 1.175-7.044-1.174-7.044-4.695-1.174-3.523 1.174-7.046 4.697-7.046l7.045-1.175c3.522 0 5.87 1.175 5.87 5.87 1.174 2.351-1.175 5.872-4.696 5.872zM524.055-22.182999999999993h-28.182c-3.521 0-5.87-2.349-5.87-5.871 0-3.523 2.349-5.87 5.87-5.87h28.182c3.521 0 5.869 2.347 5.869 5.87s-2.349 5.871-5.869 5.871zM909.171 489.742c-1.174 3.524-3.521 5.872-7.044 4.698-3.521-1.174-5.871-3.524-4.695-7.044 1.174-4.699 2.349-10.569 3.521-15.265 1.175-2.349 3.524-4.697 5.873-4.697h1.172c3.523 1.173 5.873 3.522 4.698 7.045-1.175 4.697-2.349 10.568-3.525 15.263z"  horiz-adv-x="1024" />

    
    <glyph glyph-name="electric-sensor" unicode="&#58887;" d="M704.512 506.88H406.016V811.52a36.352 36.352 0 0 1-72.704 0V506.88H259.584a35.328 35.328 0 0 1-34.304-36.352v-512a35.328 35.328 0 0 1 34.304-36.352h444.928a102.4 102.4 0 0 1 102.4 107.52V399.36a102.4 102.4 0 0 1-102.4 107.52z m12.288-401.408a39.424 39.424 0 0 0-22.016-4.096 51.2 51.2 0 0 0-15.872 0c-39.936 10.24-46.08 57.856-51.2 108.032-6.144 41.984-11.776 88.064-37.888 86.016s-31.744-35.84-39.936-64-22.016-66.048-53.76-68.096a46.08 46.08 0 0 0-51.2 37.888c-6.144 19.968-10.24 22.016-24.064 22.016s-28.16-35.84-33.792-61.952-13.824-55.808-39.936-55.808a53.76 53.76 0 0 0-51.2 51.2h26.112s4.096-31.744 24.064-31.744a145.92 145.92 0 0 1 12.288 44.544c8.192 33.792 17.92 73.728 55.808 77.824a44.032 44.032 0 0 0 51.2-35.84c6.144-17.92 10.24-24.064 22.016-22.016s22.016 31.744 28.16 51.2c11.776 37.888 24.064 75.776 64 77.824 51.2 4.096 59.904-51.2 68.096-102.4 6.144-37.888 11.776-83.968 33.792-90.112a22.016 22.016 0 0 1 15.872 0 60.928 60.928 0 0 1 26.112 44.032l26.112-4.096a62.976 62.976 0 0 0-32.768-60.416z"  horiz-adv-x="1024" />

    
    <glyph glyph-name="temperature-humidity-sensor" unicode="&#58890;" d="M595.968 120.832V230.39999999999998a20.992 20.992 0 1 1-41.984 0v-108.544a44.032 44.032 0 0 1-18.432-33.28 39.424 39.424 0 1 1 78.336 0 35.84 35.84 0 0 1-17.92 32.256z m-20.992-64.512a30.72 30.72 0 0 0-30.72 30.72 31.232 31.232 0 0 0 16.384 27.648V215.03999999999996h25.088v-99.328a28.16 28.16 0 0 0 15.872-27.648 30.72 30.72 0 0 0-26.624-31.744zM704.512 506.88H406.016V811.52a36.352 36.352 0 0 1-72.704 0V506.88H259.584a35.328 35.328 0 0 1-34.304-36.352v-512a35.328 35.328 0 0 1 34.304-36.352h444.928a102.4 102.4 0 0 1 102.4 107.52V399.36a102.4 102.4 0 0 1-102.4 107.52zM614.4 187.904h16.384v-4.608H614.4v4.608z m0-13.312h16.384v-4.608H614.4v4.608z m0-13.312h16.384v-4.608H614.4v4.608z m0-13.312h16.384H614.4v4.608z m-123.392 214.016a9.216 9.216 0 0 0 15.36 0 186.368 186.368 0 0 0 25.6-58.88 33.792 33.792 0 0 0-67.072 0 186.368 186.368 0 0 0 26.112 58.88zM358.4 225.27999999999997a409.6 409.6 0 0 0 51.2 118.272 9.216 9.216 0 0 0 15.36 0 409.6 409.6 0 0 0 51.2-118.272 60.928 60.928 0 0 0-117.76 0z m92.16-170.496h-3.072a9.216 9.216 0 0 0-5.12 11.776l113.664 269.824a9.216 9.216 0 0 0 16.896-6.656L460.8 60.416000000000054a8.704 8.704 0 0 0-9.728-5.632z m123.904-15.872a51.2 51.2 0 0 0-30.208 87.04V230.39999999999998a30.208 30.208 0 1 0 60.416 0v-102.4a51.2 51.2 0 0 0 18.432-37.888 51.2 51.2 0 0 0-48.128-51.2zM640.512 128H614.4v4.608h26.112V128z"  horiz-adv-x="1024" />

    
    <glyph glyph-name="pressure-sensor" unicode="&#58892;" d="M563.2 556.0319999999999h-17.408V816.128a34.816 34.816 0 0 1-68.608 0v-260.096H460.8a102.4 102.4 0 0 1-102.4-98.816v-311.808a99.328 99.328 0 0 1 70.656-94.208v-66.56h37.376V-76.79999999999995h91.136v61.44h37.376v66.56A99.328 99.328 0 0 1 665.6 145.40800000000002V457.216a102.4 102.4 0 0 1-102.4 98.816z m-38.4-278.528a15.36 15.36 0 0 0-21.504 0 14.336 14.336 0 0 0-3.584 15.872l-16.896 16.384a5.632 5.632 0 0 0 0 8.192 6.656 6.656 0 0 0 8.704 0l16.896-16.384a15.872 15.872 0 0 0 16.384-3.584 14.336 14.336 0 0 0 0-20.992zM512 351.23199999999997a59.904 59.904 0 0 1-60.416-58.88 7.168 7.168 0 0 0-14.336 0 71.68 71.68 0 0 0 22.016 51.2 76.288 76.288 0 0 0 105.984 0 71.168 71.168 0 0 0 22.016-51.2 7.168 7.168 0 0 0-14.336 0A59.904 59.904 0 0 1 512 351.23199999999997z m102.4-102.4a102.4 102.4 0 0 0-23.552-34.816 10.752 10.752 0 0 0-15.36 0 10.24 10.24 0 0 0 0 14.848 82.432 82.432 0 0 1 0 118.784 88.064 88.064 0 0 1-122.368 0 82.432 82.432 0 0 1 0-118.784 10.24 10.24 0 0 0 0-14.848 10.752 10.752 0 0 0-15.36 0 102.4 102.4 0 0 0-28.16 37.376 102.4 102.4 0 0 0 0 78.848 102.4 102.4 0 0 0 23.552 34.816 107.52 107.52 0 0 0 35.84 23.04 111.616 111.616 0 0 0 81.408 0 107.52 107.52 0 0 0 35.84-23.04 102.4 102.4 0 0 0 23.552-34.816 102.4 102.4 0 0 0 0-78.848z"  horiz-adv-x="1024" />

    
    <glyph glyph-name="power-supply" unicode="&#58884;" d="M706.751929 557.368732c-40.372922 1.309636-80.858743 0.541918-126.763748 0.541918 11.831885 60.943241 22.421874 115.789901 33.327982 170.591401 3.31925 16.776891 5.622404 34.00538-12.215744 42.811554-17.589768 8.693275-29.444234-3.27409-40.282602-16.528511-80.610364-98.425932-161.717486-196.445424-241.853671-295.345535-7.609438-9.370673-9.573892-23.550871-14.112459-35.495656 12.238324-4.899846 24.318589-13.344741 36.782712-14.067299 34.682778-1.941874 69.523616-0.677398 107.345006-0.677398-3.748269-13.051202-5.870783-21.631577-8.693275-30.008732-17.702668-53.062845-36.556913-105.74183-52.566086-159.346593-3.34183-11.222227 3.770849-25.718545 6.028842-38.702007 13.231841 3.612789 30.84419 2.754752 38.972966 11.425447a25949.988975 25949.988975 0 0 1 294.329438 319.912503c7.044939 7.790077 11.357707 23.82183 8.512635 33.418302-1.941874 6.412701-18.605865 11.177067-28.811996 11.470606zM440.105491 249.92035299999998l-6.074003 3.43215c9.596472 29.376494 19.057464 58.798148 28.766836 88.129482 6.548181 19.667122 13.79634 39.131025 20.118721 58.888467 10.477089 32.537685 4.222448 41.614818-28.473296 41.795458-33.169923 0.15806-66.317266 0.04516-106.961147 0.045159l222.096229 271.139846 5.261125-2.732172c-8.106196-42.292216-16.009173-84.584432-24.341169-126.786328-9.415832-47.84688-2.416053-57.465932 43.759912-58.527189 29.037795-0.654818 58.05301-1.038677 87.090805-1.603175 0.858037 0 1.693495-0.496759 7.993296-2.528953-84.177993-91.651951-166.707652-181.452348-249.237309-271.252745zM900.194223 754.514135C900.058743 832.956825 861.018037 879.923087 788.51387 880.623065 603.358412 882.4972 418.180375 882.29398 233.024917 880.735965 163.343241 880.194046 123.692878 834.289041 123.647718 762.100992v-383.610496c0-129.67656-0.1129-259.35312 0.203219-389.02968 0.02258-13.435061 0.745138-27.4572 4.470827-40.147123 14.767277-50.579052 55.501477-77.155634 117.167277-77.200793 175.468666-0.15806 350.914752-0.1129 526.360838-0.04516 87.000485 0.04516 128.344344 42.405116 128.434663 131.550694 0.06774 94.316384 0 188.632767 0 282.903992 0 156.049923 0.225799 312.009526-0.090319 467.991709zM182.197486 172.62923899999998c0 192.222977-0.02258 384.445954 0.04516 576.691511 0 53.243484 14.496318 68.16882 65.685028 68.16882 177.184741 0 354.369482 0.04516 531.576802-0.02258 40.89226-0.04516 58.459449-17.11559 58.482029-59.136847 0.316119-198.567938 0.180639-397.158456 0.09032-595.681235 0-6.141742-1.016097-12.260904-1.716075-19.960661H182.197486v29.940992zM837.715546-19.11955899999998c-0.925777-28.157178-21.496097-44.776009-52.543506-44.843749-75.733098-0.270959-151.466196-0.06774-227.199295-0.067739-104.816053 0-209.632106-0.09032-314.425579 0-43.511533 0.02258-59.294906 15.805954-59.836824 60.017464-0.338699 30.77645 0.225799 61.57548-0.15806 92.397089-0.180639 13.028622 3.36441 20.096141 17.770408 20.073561 208.728908-0.406439 417.457817-0.429019 626.209306-0.677398 2.393473 0 4.809526-1.670915 10.567409-3.770849-0.02258-41.795458 0.948357-82.484498-0.383859-123.128379z m-516.290188 12.938302h81.174863v34.502139h-81.174863v-34.502139z m-105.877309 0h81.174862v34.502139H215.548049v-34.502139z"  horiz-adv-x="1024" />

    
    <glyph glyph-name="fan-fill" unicode="&#58885;" d="M397.022977 615.670121c20.57032-14.564057 38.476207-32.989283 52.069327-44.911488 33.531202 6.277222 65.775347 12.283484 103.912856 19.373583 1.016097 7.248159 3.996648 23.279912 5.374024 39.469724 5.577244 64.014112-30.370011 122.496141-85.623109 140.22139-52.611246 16.867211-99.193649 0.654818-119.741389-41.637398-19.847762-40.93742-4.267607-78.329791 44.008291-112.515811z m27.592679-116.715678c-29.602293-16.709151-55.343418-27.592679-76.839515-44.076031-50.150033-38.295568-63.268975-101.225843-35.721455-156.433781 19.125204-38.431047 54.869239-58.05301 93.209967-51.16613 36.534333 6.503021 59.001367 36.602073 63.788313 81.445821 3.228931 29.444234 9.370673 58.594928 14.564057 90.048776-32.537685 7.722337-51.14355 34.321499-59.001367 80.181345zM705.261654-39.71245899999997c-17.996207 10.22871-37.43753 18.470386-53.514443 31.160309-24.973407 19.667122-47.62108 42.382536-73.633165 65.978567h-134.463506c-20.209041-20.660639-36.037574-40.86968-55.749856-55.953076-21.157398-16.234972-45.950165-27.705579-69.162338-41.1858-33.508622-19.463903-46.921103-47.91462-37.889129-88.287541h462.278986c8.806174 40.372922-3.996648 69.072018-37.866549 88.287541z m-190.484322 588.342757c-28.224917 1.287056-50.127453-18.312326-51.662889-46.175965-1.490276-27.073341 19.463903-50.872591 46.221125-52.453186 26.576582-1.603175 50.195193 19.825182 51.685468 46.943682 1.558015 27.728159-18.741345 50.443572-46.243704 51.685469zM511.254862 885.229372C301.374377 884.777773 131.821654 712.447718 132.024873 499.722161c0.15806-214.599691 169.755943-385.213671 382.45892-384.920132 209.383727 0.293539 378.033252 173.052613 377.468754 386.636207C891.433208 714.073473 721.225667 885.68097 511.254862 885.229372z m-1.128997-727.977068c-186.487674 0.383859-338.473208 155.711224-337.231312 344.592371 1.287056 189.084366 153.76935 341.36344 341.227961 340.731202 186.645733-0.564498 337.660331-155.078986 336.960353-344.77301-0.632238-188.790827-153.024212-340.957001-340.957002-340.550563z m271.501125 374.691423c-24.070209 29.331334-58.888467 34.434399-101.135524 16.302712-27.773319-11.967365-56.224035-22.263815-85.37473-33.689261 12.373804-35.134377-6.84172-62.478677-37.911708-90.816494 26.192723-16.347872 48.004939-33.869901 72.729966-44.57279 58.278809-25.199206 114.706064-8.467475 150.811379 41.02774 28.202337 38.747166 28.541036 78.081411 0.880617 111.748093z"  horiz-adv-x="1024" />

    
    <glyph glyph-name="walkie-talkie" unicode="&#58901;" d="M493.913473 64.90037500000005a7.067519 7.067519 0 0 1-7.225579 6.8643h-21.699316a7.090099 7.090099 0 0 1-7.248159-6.8643v-20.57032c0-3.793429 3.27409-6.8643 7.248159-6.8643h21.699316c3.974068 0 7.225579 3.070871 7.225579 6.8643v20.57032z m28.924895 109.783638h-21.676736a7.067519 7.067519 0 0 1-7.248159-6.8643v-20.570319c0-3.793429 3.25151-6.8643 7.248159-6.8643h21.676736a7.067519 7.067519 0 0 1 7.248159 6.8643v20.570319c0.02258 3.770849-3.25151 6.8643-7.248159 6.8643z m133.921588 598.074708c0 28.428137-24.318589 51.459669-54.282161 51.459669s-54.282161-23.031533-54.282161-51.459669V687.361411h108.586902V772.758721zM620.541742 721.682911H584.368688V772.758721c0 9.483572 8.061036 17.13817 18.086527 17.13817 9.957751 0 18.086527-7.654598 18.086527-17.13817V721.682911z m-90.432635-608.755017c0-3.770849 3.25151-6.8643 7.225579-6.8643h21.699316a7.067519 7.067519 0 0 1 7.248159 6.8643v20.57032a7.090099 7.090099 0 0 1-7.248159 6.88688h-21.699316a7.090099 7.090099 0 0 1-7.225579-6.88688v-20.57032z m-72.391268-13.70602c0 3.770849-3.25151 6.84172-7.248159 6.84172h-21.699316c-3.996648 0-7.248159-3.070871-7.248159-6.84172v-20.570319c0-3.770849 3.25151-6.88688 7.248159-6.88688h21.699316a7.090099 7.090099 0 0 1 7.248159 6.88688v20.570319zM765.324278 653.039912h-326.280044V721.095832c0 18.741345-15.896273 33.892481-35.585976 34.18602V841.717839c0 28.405557-24.318589 51.459669-54.282161 51.459669S294.893936 870.123396 294.893936 841.717839v-86.300507h-0.564498c-20.005821 0-36.195634-15.376935-36.195634-34.3215v-68.16882c-39.695524-0.270959-71.80419-30.75387-71.80419-68.484939v-343.056935c0-25.086307 14.902756-46.130805 36.195634-58.09817v-234.808732c0-37.843969 38.882646-68.597839 86.865006-68.597839h405.309812c47.959779 0 86.865006 30.73129 86.865006 68.597839v234.831312c21.247718 11.944785 36.173054 33.011863 36.173054 58.09817V584.4420729999999c-0.04516 37.889129-32.469945 68.597839-72.413848 68.597839z m36.195634-411.654774c0-5.825623-1.987034-11.086748-4.719206-15.896274a35.924675 35.924675 0 0 0-31.499008-18.357486v-258.630562c0-18.921985-16.234972-34.27634-36.195634-34.27634H294.871356c-19.960662 0-36.195634 15.331775-36.195634 34.27634V207.13137800000004a36.037574 36.037574 0 0 0-31.499008 18.357486 31.815127 31.815127 0 0 0-4.696626 15.896274V584.4420729999999c0 18.718765 15.918853 33.892481 35.631136 34.18602 0.225799 0 0.361279 0.13548 0.564498 0.135479h35.631136V714.254112c0 2.822492 2.009614 4.719206 4.561146 5.825623 0.858037 0.429019 1.670915 1.016097 2.664433 1.016097h29.534553V841.717839c0 9.483572 8.083616 17.13817 18.086527 17.13817 10.002911 0 18.086527-7.654598 18.086527-17.13817v-120.622007h28.382977c1.445116 0 2.574112-0.745138 3.680529-1.445115 1.941874-1.241896 3.56763-3.003131 3.56763-5.396605v-95.49054h362.453098c19.983241 0 36.218214-15.376935 36.218214-34.321499v-343.056935z m-242.48591-169.620463h-21.699316a7.044939 7.044939 0 0 1-7.225579-6.8643v-20.57032c0-3.793429 3.25151-6.8643 7.225579-6.8643h21.699316a7.044939 7.044939 0 0 1 7.248159 6.8643v20.57032a7.044939 7.044939 0 0 1-7.248159 6.8643z m36.195634 34.321499H573.53032a7.044939 7.044939 0 0 1-7.248159-6.84172v-20.570319c0-3.770849 3.25151-6.88688 7.248159-6.88688h21.699316c3.996648 0 7.225579 3.116031 7.225579 6.88688v20.570319c0.02258 3.748269-3.228931 6.84172-7.225579 6.84172z m-101.316163-27.434619c0-3.770849 3.25151-6.88688 7.248159-6.88688h21.676736a7.090099 7.090099 0 0 1 7.248159 6.88688v20.570319c0 3.770849-3.27409 6.84172-7.248159 6.84172h-21.676736c-3.996648 0-7.248159-3.070871-7.248159-6.84172v-20.570319z m162.846483 437.215259H367.240044c-19.960662 0-36.195634-15.376935-36.195634-34.3215v-137.240838c0-18.899405 16.234972-34.27634 36.195634-34.276339h289.519912c19.983241 0 36.195634 15.354355 36.195634 34.276339v137.240838c-0.02258 18.921985-16.212393 34.321499-36.195634 34.3215z m0-164.698038c0-3.748269-3.27409-6.8643-7.248159-6.8643h-275.023594a7.090099 7.090099 0 0 0-7.248159 6.8643v123.534818c0 3.770849 3.25151 6.84172 7.248159 6.84172h275.001014c3.996648 0 7.248159-3.070871 7.248159-6.84172v-123.534818z m-133.921588-313.680441h-21.676736a7.090099 7.090099 0 0 1-7.248159-6.8643v-20.592899c0-3.770849 3.25151-6.8643 7.248159-6.8643h21.676736a7.090099 7.090099 0 0 1 7.248159 6.8643v20.592899c0.02258 3.748269-3.25151 6.8643-7.248159 6.8643z m-36.173054 102.919339h-21.699316a7.112679 7.112679 0 0 1-7.248159-6.88688v-20.57032c0-3.770849 3.27409-6.8643 7.248159-6.8643h21.699316c3.974068 0 7.225579 3.093451 7.225579 6.8643v20.57032c0.02258 3.748269-3.25151 6.88688-7.225579 6.88688z"  horiz-adv-x="1024" />

    
    <glyph glyph-name="led" unicode="&#58919;" d="M498.2714 283.31607499999996h54.84666v54.846659h-54.84666v-54.846659z m-164.517398 0h54.84666v54.846659h-54.84666v-54.846659z m0-82.258699h54.84666v54.869239h-54.84666v-54.869239zM59.543286 584.961411H4.696626v-54.846659h54.84666v54.846659z m329.057376 0h-54.84666v-54.846659h54.84666v54.846659z m-54.84666-548.421433h54.84666v54.846659h-54.84666v-54.846659z m137.105359 548.421433h-54.84666v-54.846659h54.84666v54.846659z m-54.84666-548.421433h54.84666v54.846659h-54.84666v-54.846659z m-82.258699 411.316075h54.84666v54.846659h-54.84666v-54.846659z m0-329.057376h54.84666v54.846659h-54.84666v-54.846659z m82.258699 164.517398h54.84666v54.846659h-54.84666v-54.846659z m-82.258699 82.258699h54.84666v54.846659h-54.84666v-54.846659zM59.543286 338.162734H4.696626v-54.846659h54.84666v54.846659z m0-82.258699H4.696626v-54.869239h54.84666v54.869239z m0 246.798677H4.696626v-54.846659h54.84666v54.846659z m0-82.281279H4.696626v-54.846659h54.84666v54.846659z m0-246.776097H4.696626v-54.846659h54.84666v54.846659z m191.952017-82.281279v-54.846659h54.84666v54.846659h-54.84666z m-191.952017 0H4.696626v-54.846659h54.84666v54.846659z m109.693318 0v-54.846659h54.84666v54.846659H169.236604z m-82.258699 0v-54.846659H141.801985v54.846659H86.977905zM4.696626-128H1019.258214v54.846659H4.696626v-54.846659z m658.114752 411.316075h54.869239v54.846659h-54.869239v-54.846659z m301.645336 301.645336h-54.869239v-54.846659h54.869239v54.846659z m-54.869239-548.421433h54.869239v54.846659h-54.869239v-54.846659z m-109.670739 548.421433h-54.824079v-54.846659h54.824079v54.846659z m27.43462-548.421433h54.82408v54.846659h-54.82408v-54.846659z m54.8015 548.421433H827.328776v-54.846659h54.82408v54.846659z m82.303858-466.162734h54.82408v54.846659h-54.82408v-54.846659zM4.696626 749.478809v-54.846659H1019.258214V749.478809H4.696626z m959.760088-301.622756h54.82408v54.846659h-54.82408v-54.846659z m0-246.798677h54.82408v54.869239h-54.82408v-54.869239z m0 164.517398h54.82408v54.846659h-54.82408v-54.846659z m0-82.258699h54.82408v54.846659h-54.82408v-54.846659zM553.11806 584.961411h-54.84666v-54.846659h54.84666v54.846659z m109.693318-137.105358h54.869239v54.846659h-54.869239v-54.846659z m82.281279-411.316075h54.824079v54.846659h-54.824079v-54.846659z m-109.715898 548.421433h-54.82408v-54.846659h54.82408v54.846659z m-54.82408-548.421433h54.82408v54.846659h-54.82408v-54.846659z m-82.281279 0h54.84666v54.846659h-54.84666v-54.846659z m219.386637 548.421433h-54.869239v-54.846659h54.869239v54.846659z m-54.846659-548.421433h54.869239v54.846659h-54.869239v-54.846659z m0 82.258699h54.869239v54.846659h-54.869239v-54.846659z m0 246.776097h54.869239v54.846659h-54.869239v-54.846659z m0-164.517398h54.869239v54.869239h-54.869239v-54.869239z"  horiz-adv-x="1024" />

    
    <glyph glyph-name="robot" unicode="&#58893;" d="M965.811 53.337999999999965h-36.727v57.986c0 10.678-8.653 19.331-19.329 19.331h-77.317c-10.676 0-19.329-8.653-19.329-19.331v-57.986h-40.063c-9.408 65.479-65.859 115.977-133.903 115.977h-30.927s-0.143 128.096-0.404 129.367c2.312 28.656-7.444 58.113-29.319 79.988L476.324 480.841l120.973 120.974a81.956 81.956 0 0 1 14.606 19.811h120.023c10.677 0 19.33 8.654 19.33 19.33v19.326h45.102v-19.359a19.328 19.328 0 0 1 9.666-16.739l67.01-38.686a19.303 19.303 0 0 1 9.665-2.591c3.338 0 6.674 0.864 9.664 2.591l67.01 38.687c9.246 5.337 12.414 17.16 7.075 26.404-5.338 9.245-17.162 12.414-26.404 7.075l-57.345-33.105-47.681 27.527v55.058l47.681 27.527 57.345-33.107c9.246-5.339 21.068-2.17 26.404 7.074 5.339 9.246 2.171 21.068-7.075 26.405l-67.01 38.687a19.323 19.323 0 0 1-19.329 0l-67.01-38.687a19.329 19.329 0 0 1-9.666-16.74v-19.359h-45.102v19.33c0 10.676-8.653 19.329-19.33 19.329H565.824c-28.727 9.789-61.832 3.26-84.703-19.609L340.497 577.367c-52.052-9.217-91.723-54.752-91.723-109.412 0-36.566 17.757-69.059 45.095-89.325a101.55 101.55 0 0 1 11.768-14.135l105.86-105.858v-89.322H387.86c-68.043 0-124.493-50.497-133.903-115.977h-40.064v57.986c0 10.678-8.653 19.331-19.331 19.331h-77.317c-10.676 0-19.33-8.653-19.33-19.331v-57.986H61.189c-10.676 0-19.329-8.653-19.329-19.327 0-10.678 8.653-19.331 19.329-19.331H965.81c10.676 0 19.329 8.653 19.329 19.331 0.001 10.674-8.653 19.327-19.328 19.327zM712.595 698.943v-38.66h-91.286c-0.063 13.325-3.344 26.635-9.833 38.66h101.119zM175.233 53.337999999999965h-38.659v38.659h38.66v-38.659h-0.001z m333.221 637.319c8.215 8.214 19.134 12.738 30.752 12.738 11.619 0 22.538-4.523 30.753-12.738 16.957-16.957 16.957-44.548 0-61.507L459.008 518.1949999999999c-13.615 26.749-37.724 47.281-66.884 56.128l116.33 116.334zM287.428 467.955c0 39.968 32.517 72.486 72.485 72.486 39.969 0 72.486-32.519 72.486-72.486s-32.517-72.486-72.486-72.486-72.485 32.518-72.485 72.486z m80.262-110.841c46.786 3.252 85.68 35.569 98.694 78.991l84.772-84.772c24.493-24.494 24.493-64.347 0-88.84-11.868-11.866-27.641-18.399-44.422-18.399-16.779 0-32.555 6.533-44.42 18.399l-94.624 94.621z m201.866-129.876v-57.928H450.155v53.366c17.042-11.454 36.805-17.201 56.58-17.201 22.242 0.004 44.469 7.273 62.821 21.763z m-276.404-173.9c8.981 44.06 48.033 77.317 94.708 77.317h251.282c46.672 0 85.724-33.258 94.708-77.317H293.152z m597.274 0h-38.66v38.659h38.66v-38.659zM359.913 487.286c-10.657 0-19.33-8.672-19.33-19.331 0-10.658 8.672-19.331 19.33-19.331 10.659 0 19.331 8.673 19.331 19.331 0 10.659-8.672 19.331-19.331 19.331z"  horiz-adv-x="1024" />

    
    <glyph glyph-name="scan" unicode="&#58904;" d="M212.924 461.44h-60.881V824.092h60.881V461.44z m149.56 362.652h-86.03V461.44h86.03V824.092z m111.842 0H431.31V461.44h43.015l0.001 362.652z m151.544 0H525.28V461.44h100.59V824.092z m88.676 0h-25.148V461.44h25.148V824.092z m70.148 0h-33.089V461.44h33.089V824.092z m91.326 0h-64.854V461.44h64.854V824.092z m-6.285-394.083h-58.569V257.20000000000005h58.569V430.009z m121.27 31.431h-86.91v-31.433h86.91V461.44zM211.77 434.051h-58.572v-172.808h58.57V434.051h0.002z m-89.866 27.389H34.995v-31.433h86.909V461.44z m600.584-126.252v-34.613a270.753 270.753 0 0 0-48.906-155.214L600.72 41.21799999999996v-93.31H419.4v93.31l-72.862 104.143a270.76 270.76 0 0 0-48.906 155.214v34.613c0 37.384 30.305 67.69 67.691 67.69h289.474c37.385-0.002 67.691-30.309 67.691-67.69z m-106.356-20.384H395.72c21.622-38.569 62.84-64.677 110.205-64.677s88.584 26.104 110.207 64.677z"  horiz-adv-x="1024" />

    
    <glyph glyph-name="app-upgrade" unicode="&#58900;" d="M512 894.88C229.888 894.88 1.056 666.144 1.056 384S229.888-126.91200000000003 512-126.91200000000003c282.048 0 510.912 228.672 510.912 510.912C1022.944 666.208 794.048 894.88 512 894.88z m1.696-978.208c-257.024 0-465.344 208.416-465.344 465.536 0 257.056 208.32 465.44 465.44 465.44s465.536-208.384 465.536-465.44c0-257.152-208.416-465.536-465.536-465.536h-0.096zM189.792 91.93600000000004l90.912 236.672h33.728l96.992-236.672H375.68l-27.648 71.648H249.024l-25.952-71.648h-33.28z m68.256 97.216h80.288l-24.64 65.568a635.776 635.776 0 0 0-16.8 49.024 302.208 302.208 0 0 0-12.768-45.184l-26.08-69.408z m178.336-97.216v236.672h89.344c15.744 0 27.776-0.704 36.064-2.208 11.616-1.984 21.376-5.6 29.248-11.104 7.84-5.44 14.112-13.056 18.912-22.784 4.896-10.048 7.328-21.152 7.264-32.32 0-20.096-6.496-37.12-19.264-51.104-12.864-13.984-36.032-21.024-69.536-20.928h-60.608v-96.224h-31.424z m31.392 116.576h61.152c20.288 0 34.656 3.84 43.168 11.264 8.512 7.584 12.736 18.208 12.736 31.904 0 9.92-2.496 18.368-7.488 25.408a35.136 35.136 0 0 1-19.712 13.984c-5.312 1.344-15.104 2.112-29.248 2.112h-60.608v-84.672z m189.312-116.576v236.672h89.344c15.552 0 27.648-0.672 35.904-2.112 11.712-1.984 21.344-5.664 29.184-11.104 7.872-5.472 14.24-12.992 19.168-22.784 4.672-10.144 7.232-21.184 6.976-32.416 0-20.096-6.336-37.12-19.104-51.104-12.768-13.984-35.936-21.024-69.6-20.928h-60.608v-96.224h-31.264z m31.296 124.224h61.28c20.192 0 34.656 3.712 42.944 11.296 8.544 7.392 12.768 18.144 12.768 31.776 0 9.952-2.368 18.368-7.456 25.504a34.464 34.464 0 0 1-19.776 13.888c-5.344 1.472-14.88 2.144-29.152 2.144h-60.608v-84.608z m0 0M682.88 628.352l-137.28 169.952a37.024 37.024 0 0 1-51.872 0L341.12 631.8720000000001c-12.128-14.112-15.232-31.872-9.152-46.048 6.048-14.112 18.272-24.832 33.6-24.832h45.728c9.152 0 15.2-7.072 15.2-14.08v-17.696c0-7.072 6.176-14.08 12.224-14.08s12.224 7.04 12.224 14.08v53.12c0 7.072-6.176 14.08-12.224 14.08h-64.128c-6.048 0-9.024 7.072-9.024 7.072s-3.072 7.104 3.008 14.112L512 769.984c0 3.52 2.976 3.52 6.048 3.52s6.048 0 9.152-3.52l131.232-152.256c6.048-3.552 3.104-10.592 3.104-14.144 0 0-3.104-7.072-9.12-7.072h-64.128a14.72 14.72 0 0 1-15.232-14.08v-74.4c0-10.656-6.048-17.696-15.232-17.696h-125.152c-6.048 0-12.224-10.656-12.224-17.728 0-7.04 6.144-17.76 12.224-17.76h128.16c21.344 0 39.648 21.216 39.648 46.016V546.88c3.104 7.072 9.12 14.08 15.2 14.08h42.752c15.232 0 27.36 10.656 33.568 24.832 6.112 14.144 2.976 31.872-9.12 42.496v0.064z m-94.592-209.024h-152.512c-9.152 0-15.2-7.008-15.2-17.632 0-10.656 6.048-17.728 15.2-17.728h152.512c9.152 0 15.232 7.072 15.232 17.728-0.032 10.624-6.08 17.632-15.232 17.632z m0 0"  horiz-adv-x="1024" />

    
    <glyph glyph-name="distance-sensor" unicode="&#58925;" d="M182.491429 745.142857l373.211428 0 0-729.051428-373.211428 0 0 729.051428ZM229.851429 268.43428600000004h309.028571a16.822857 16.822857 0 0 0 16.822857-16.822857v-188.16a47.36 47.36 0 0 0-47.36-47.36H229.851429A47.36 47.36 0 0 0 182.857143 63.45142899999996v157.622857a47.36 47.36 0 0 0 46.994286 47.36zM492.251429-11.337142999999969H245.76a91.428571 91.428571 0 0 0-91.428571 91.428572v601.6a91.428571 91.428571 0 0 0 91.428571 91.428571h246.491429a91.428571 91.428571 0 0 0 91.428571-91.428571v-602.331429a91.428571 91.428571 0 0 0-91.428571-90.697143zM245.76 717.714286a36.571429 36.571429 0 0 1-36.571429-36.571429v-601.782857a36.571429 36.571429 0 0 1 36.571429-36.571429h246.491429a36.571429 36.571429 0 0 1 36.571428 36.571429V681.691429a36.571429 36.571429 0 0 1-36.571428 36.571428zM334.262857 593.005714H182.857143a27.428571 27.428571 0 0 0 0 54.857143h151.771428a27.428571 27.428571 0 0 0 0-54.857143zM277.028571 475.428571H182.857143a27.428571 27.428571 0 0 0 0 54.857143h94.537143a27.428571 27.428571 0 0 0 0-54.857143zM334.262857 358.4H182.857143a27.428571 27.428571 0 1 0 0 54.857143h151.771428a27.428571 27.428571 0 0 0 0-54.857143zM277.028571 241.005714H182.857143a27.428571 27.428571 0 1 0 0 54.857143h94.537143a27.428571 27.428571 0 0 0 0-54.857143zM334.262857 123.61142900000004H182.857143a27.428571 27.428571 0 1 0 0 54.857142h151.771428a27.428571 27.428571 0 0 0 0-54.857142zM676.571429 232.594286a27.428571 27.428571 0 0 0-19.382858 46.811428 142.994286 142.994286 0 0 1 0 202.24A27.428571 27.428571 0 0 0 694.857143 520.411429a197.851429 197.851429 0 0 0 0-279.771429 27.977143 27.977143 0 0 0-18.285714-8.045714zM778.971429 129.828571a27.062857 27.062857 0 0 0-19.382858 8.045715 27.611429 27.611429 0 0 0 0 38.765714 288.548571 288.548571 0 0 1 0 407.954286 27.611429 27.611429 0 0 0 0 38.765714 27.245714 27.245714 0 0 0 38.765715 0 343.222857 343.222857 0 0 0 0-485.485714 26.514286 26.514286 0 0 0-19.382857-8.045715z"  horiz-adv-x="1024" />

    
    <glyph glyph-name="sensor" unicode="&#59042;" d="M466.2848 504.0896l34.1632 71.5008a12.8 12.8 0 0 0 23.104 0l34.1632-71.5008H819.2a32 32 0 0 0 32-32V89.60000000000002a32 32 0 0 0-32-32H204.8a32 32 0 0 0-32 32V472.0896a32 32 0 0 0 32 32h261.4848zM236.8 440.3072v-318.9248h550.4V440.3072H236.8z m128-229.6256c-38.88 0-70.4 31.4112-70.4 70.1632 0 38.752 31.52 70.1632 70.4 70.1632s70.4-31.4112 70.4-70.1632c0-38.752-31.52-70.1632-70.4-70.1632z m246.4 140.3264a22.4 22.4 0 0 0 22.4-22.4v-95.5264a22.4 22.4 0 1 0-44.8 0V328.60799999999995a22.4 22.4 0 0 0 22.4 22.4z m89.6 0a22.4 22.4 0 0 0 22.4-22.4v-95.5264a22.4 22.4 0 1 0-44.8 0V328.60799999999995a22.4 22.4 0 0 0 22.4 22.4z m-320.3968 261.376a32.0576 32.0576 0 0 0-43.5392 12.3072 31.8336 31.8336 0 0 0 12.352 43.392c101.12 56.256 212.224 56.256 330.016 1.0112a31.8464 31.8464 0 0 0 15.328-42.432 32.0448 32.0448 0 0 0-42.5792-15.2832c-99.8144 46.8096-189.2352 46.8096-271.5776 1.0112z"  horiz-adv-x="1024" />

    
    <glyph glyph-name="scene" unicode="&#60257;" d="M592 560h-416c-52.928 0-96-43.072-96-96v-416c0-52.928 43.072-96 96-96h416c52.928 0 96 43.072 96 96v416c0 52.928-43.072 96-96 96z m32-512a32 32 0 0 0-32-32h-416c-17.632 0-32 14.336-32 32v416c0 17.632 14.368 32 32 32h416c17.664 0 32-14.368 32-32v-416zM720 688h-416a32 32 0 0 1 0-64h416c17.664 0 32-14.368 32-32v-416a32 32 0 1 1 64 0v416c0 52.928-43.072 96-96 96zM528 144h-288a32 32 0 1 1 0-64h288a32 32 0 1 1 0 64zM848 816h-416a32 32 0 0 1 0-64h416c17.664 0 32-14.368 32-32v-416a32 32 0 1 1 64 0v416c0 52.928-43.072 96-96 96z"  horiz-adv-x="1024" />

    
    <glyph glyph-name="related-device" unicode="&#60259;" d="M260.096 352H160a32 32 0 0 0-32 32V640h480v-256a32 32 0 0 0-32-32h-54.976a32 32 0 0 1 0-64H576a96 96 0 0 1 96 96V736a96 96 0 0 1-96 96H160a96 96 0 0 1-96-96v-352a96 96 0 0 1 96-96h100.096a32 32 0 0 1 0 64zM128 736a32 32 0 0 0 32 32h416a32 32 0 0 0 32-32v-32H128V736zM864 480h-90.88a32 32 0 0 1 0-64H864a32 32 0 0 0 32-32v-256H416v256a32 32 0 0 0 32 32h63.072a32 32 0 0 1 0 64H448a96 96 0 0 1-96-96v-352a96 96 0 0 1 96-96h416a96 96 0 0 1 96 96V384a96 96 0 0 1-96 96z m32-448a32 32 0 0 0-32-32H448a32 32 0 0 0-32 32v32h480v-32z"  horiz-adv-x="1024" />

    
    <glyph glyph-name="jiedianguanli" unicode="&#60262;" d="M512 384m-192 0a192 192 0 1 1 384 0 192 192 0 1 1-384 0ZM960 384c0 53.6-9.408 105.92-27.616 155.2a32 32 0 0 1-60.032-22.144c15.584-42.24 23.648-87.072 23.648-133.056 0-22.048-2.272-43.552-5.856-64.576A63.808 63.808 0 0 1 832 256c0-18.88 8.32-35.68 21.344-47.392C789.6 84.832 660.832 0 512 0 299.936 0 128 171.936 128 384c0 22.048 2.272 43.552 5.856 64.576A63.808 63.808 0 0 1 192 512c0 18.88-8.32 35.68-21.344 47.392C234.4 683.168 363.168 768 512 768c33.312 0 65.824-4.736 97.312-12.96A64.064 64.064 0 0 1 736 768a64 64 0 0 1-64 64c-16.256 0-30.944-6.272-42.24-16.256A448.864 448.864 0 0 1 512 832C331.712 832 176.736 725.28 105.664 571.776A63.872 63.872 0 0 1 64 512c0-12.576 3.744-24.224 10.016-34.112A449.344 449.344 0 0 1 64 384c0-247.424 200.576-448 448-448 180.288 0 335.264 106.72 406.336 260.224A63.872 63.872 0 0 1 960 256c0 12.576-3.744 24.224-10.016 34.112 6.464 30.304 10.016 61.664 10.016 93.888z"  horiz-adv-x="1024" />

    
    <glyph glyph-name="interaction" unicode="&#60265;" d="M948.448 360.51199999999994c-25.856 119.584-111.008 238.24-182.272 217.632-25.504-7.36-45.088-20.832-57.728-39.424-22.976 10.656-46.496 11.68-69.504 1.536a86.112 86.112 0 0 1-40.256-35.52c-26.496 13.408-56.96 13.12-88.896-1.856a107.2 107.2 0 0 1-19.232-11.456c-77.824 109.984-141.408 159.616-198.72 146.624-81.152-18.368-81.152-89.152-19.584-181.856l118.208-182.784c-64.864 12.192-111.776 1.728-139.584-35.424-45.472-60.8 2.656-116.96 114.4-167.232l215.968-96.064a32 32 0 0 1 26.016 58.464l-215.84 96c-43.552 19.584-72.32 37.952-85.568 53.44-7.68 8.96-7.904 11.456-3.712 17.056 15.808 21.12 64.928 21.12 150.56-10.816 28.864-10.784 54.784 21.472 38.048 47.36l-164.96 255.072C284.8 552.992 284.8 570.816 305.984 575.616c28.064 6.336 87.104-49.408 165.536-170.56 5.888-13.888 15.072-28.352 27.392-42.976 25.472-30.272 72.416 3.552 51.776 37.312a2035.2 2035.2 0 0 1-23.04 36.832c0.544 3.744 3.872 6.144 9.312 8.704 22.464 10.528 36.48 6.528 52.192-15.68 17.472-24.64 56.224-13.6 58.048 16.576 1.28 21.184 7.136 31.296 17.536 35.872 8.96 3.936 20.096 0.544 37.472-16a32 32 0 0 1 53.952 20.32c1.472 16.544 9.024 25.248 27.808 30.688 19.712 5.696 83.136-82.688 101.952-169.696 13.536-62.592 13.536-136.992-0.32-223.136a32 32 0 1 1 63.2-10.144c15.008 93.504 15.008 175.776-0.352 246.784zM300.8 0H164.256C144.352 0 128 16.607999999999947 128 37.34400000000005V730.656C128 751.392 144.352 768 164.256 768h375.456C559.648 768 576 751.392 576 730.656a32 32 0 0 1 64 0C640 786.528 595.232 832 539.744 832H164.256C108.768 832 64 786.528 64 730.656v-693.344C64-18.52800000000002 108.768-64 164.256-64H300.8a32 32 0 0 1 0 64z"  horiz-adv-x="1024" />

    
    <glyph glyph-name="bluetooth-o" unicode="&#58924;" d="M508.3392-123.96543999999994c-280.0896 0-507.96544 227.87584-507.96544 507.96544s227.87584 507.96544 507.96544 507.96544c280.0896 0 507.96544-227.87584 507.96544-507.96544s-227.87072-507.96544-507.96544-507.96544z m0 978.5088c-259.456 0-470.54336-211.08736-470.54336-470.54336s211.08736-470.54336 470.54336-470.54336c259.456 0 470.54848 211.08736 470.54848 470.54336s-211.08736 470.54336-470.54848 470.54336zM509.95712 32.88063999999997a18.70848 18.70848 0 0 0-18.70848 18.70848v272.25088l-139.12064-139.11552a18.70336 18.70336 0 1 0-26.45504 26.46016l165.57568 165.57568v13.88544l-171.45344 171.45856a18.70336 18.70336 0 1 0 26.45504 26.46016l144.9984-144.99328v272.8448a18.70336 18.70336 0 0 0 31.93344 13.23008l173.70624-173.70112a18.688 18.688 0 0 0 0-26.46016l-145.77152-145.78176 145.47456-145.47456a18.70336 18.70336 0 0 0 0-26.46016l-173.40416-173.40928a18.70336 18.70336 0 0 0-13.23008-5.4784z m18.70848 320.34816v-256.47104l128.2304 128.23552-128.2304 128.23552z m0 318.01856v-257.06496l128.53248 128.53248-128.53248 128.53248z"  horiz-adv-x="1024" />

    
    <glyph glyph-name="fingerprint" unicode="&#58928;" d="M803.8912 416.92672a18.02752 18.02752 0 0 0-17.4848 13.68576c-30.92992 124.43136-142.20288 211.33824-270.61248 211.33824-26.79808 0-53.29408-3.7888-78.74048-11.26912a18.03776 18.03776 0 0 0-10.16832 34.60608 315.22304 315.22304 0 0 0 88.9088 12.72832c145.00864 0 270.67904-98.16064 305.60768-238.70976a18.03776 18.03776 0 0 0-17.5104-22.37952zM218.93632 345.09312a18.03264 18.03264 0 0 0-18.03264 18.03264c0 108.67712 54.91712 208.26112 146.90304 266.38848a18.03264 18.03264 0 1 0 19.26656-30.4896c-81.46944-51.4816-130.10432-139.66848-130.10432-235.89888a18.03264 18.03264 0 0 0-18.03264-18.03264zM726.2976 345.09312a18.03264 18.03264 0 0 0-18.03264 18.03264c0 86.63552-58.30656 163.01056-141.79328 185.73312a18.02752 18.02752 0 1 0 9.46688 34.80064c99.14368-26.97728 168.39168-117.66272 168.39168-220.53376a18.03776 18.03776 0 0 0-18.03264-18.03264zM305.29536 345.09312a18.03264 18.03264 0 0 0-18.03264 18.03264c0 115.24096 86.12864 212.74624 200.3456 226.81088a18.03776 18.03776 0 0 0 4.40832-35.79392c-96.16384-11.83744-168.68352-93.95712-168.68352-191.01184a18.04288 18.04288 0 0 0-18.03776-18.03776zM382.66368 345.09312a18.03264 18.03264 0 0 0-18.03264 18.03264c0 83.3536 67.8144 151.168 151.168 151.168 53.79584 0 103.96672-28.95872 130.93376-75.5712a18.02752 18.02752 0 1 0-31.21664-18.05312c-20.54144 35.5072-58.74688 57.55904-99.712 57.55904-63.46752 0-115.10272-51.6352-115.10272-115.10272a18.04288 18.04288 0 0 0-18.03776-18.03264zM571.12064 345.09312a18.03264 18.03264 0 0 0-18.03264 18.03264c0 20.56192-16.72704 37.28896-37.28896 37.28896s-37.29408-16.72704-37.29408-37.28896a18.03264 18.03264 0 0 0-36.06528 0c0 40.448 32.91136 73.35936 73.35936 73.35936s73.35424-32.91136 73.35424-73.35936a18.03776 18.03776 0 0 0-18.03264-18.03264zM270.44864 205.66528000000005a18.04288 18.04288 0 0 0-15.8976 26.5216 279.26528 279.26528 0 0 1 32.71168 130.944 18.03264 18.03264 0 0 0 36.06528 0 315.4432 315.4432 0 0 0-36.95104-147.91168 18.0224 18.0224 0 0 0-15.92832-9.55392zM314.07616 155.40224a18.03264 18.03264 0 0 0-13.85472 29.56288 279.1168 279.1168 0 0 1 64.4096 178.16064 18.03264 18.03264 0 0 0 36.06528 0 315.22304 315.22304 0 0 0-72.75008-201.22624 18.00192 18.00192 0 0 0-13.87008-6.49728zM403.81952 171.01824a18.03264 18.03264 0 0 0-14.56128 28.65152c34.79552 47.78496 53.18656 104.30976 53.18656 163.456a18.03264 18.03264 0 0 0 36.06528 0c0-66.82624-20.77696-130.688-60.09344-184.68864a18.03776 18.03776 0 0 0-14.59712-7.41888zM425.51808 89.97888a18.03776 18.03776 0 0 0-9.22624 33.54112c84.37248 50.13504 136.79104 141.952 136.79104 239.61088a18.03264 18.03264 0 0 0 36.06528 0c0-110.32064-59.17696-214.016-154.43968-270.6176a17.93024 17.93024 0 0 0-9.1904-2.5344zM551.62368 125.69087999999999a18.0224 18.0224 0 0 0-12.11904 31.3856c58.0864 52.70528 91.40224 127.81056 91.40224 206.04928a18.03264 18.03264 0 0 0 36.06528 0c0-88.39168-37.62688-173.22496-103.22944-232.76032a18.01216 18.01216 0 0 0-12.11904-4.67456zM644.3008 140.59007999999994a18.02752 18.02752 0 0 0-13.04064 30.48448c49.65888 52.00384 77.0048 120.21248 77.0048 192.0512a18.03264 18.03264 0 0 0 36.06528 0c0-81.16224-30.89408-158.208-86.98368-216.96a17.99168 17.99168 0 0 0-13.04576-5.57568zM756.24448 170.98239999999998a18.03776 18.03776 0 0 0-14.58176 28.6208c34.64704 47.7696 52.96128 104.31488 52.96128 163.52256a18.03264 18.03264 0 0 0 36.06528 0c0-66.8672-20.68992-130.73408-59.8272-184.69888a18.0224 18.0224 0 0 0-14.6176-7.44448zM515.80416-105.60000000000002c-269.97248 0-489.61024 219.63264-489.61024 489.6s219.63776 489.6 489.61024 489.6c269.96736 0 489.6-219.63264 489.6-489.6s-219.63776-489.6-489.6-489.6z m0 943.13984c-250.0864 0-453.54496-203.45856-453.54496-453.53984s203.45856-453.53984 453.54496-453.53984c250.07616 0 453.53472 203.45856 453.53472 453.53984s-203.45856 453.53984-453.53472 453.53984z"  horiz-adv-x="1024" />

    
    <glyph glyph-name="indicator-light" unicode="&#60310;" d="M816 320h-31.744v253.152c0 143.424-119.872 260.096-267.2 260.096-147.328 0-267.2-116.672-267.2-260.096V320H208C163.904 320 128 284.12800000000004 128 240S163.904 160 208 160H384v-112.576a32 32 0 1 1 64 0V160h128v-176.576a32 32 0 1 1 64 0V160h176c44.128 0 80 35.872 80 80S860.128 320 816 320zM313.888 573.152c0 108.128 91.168 196.096 203.2 196.096s203.2-87.968 203.2-196.096V320h-406.4v253.152zM816 224h-608a16 16 0 0 0 0 32h608c8.8 0 16-7.2 16-16s-7.2-16-16-16z"  horiz-adv-x="1024" />

    
    <glyph glyph-name="room-card" unicode="&#59038;" d="M938.954 752.5029999999999H85.046c-46.966 0-85.04-38.073-85.04-85.039v-566.929c0-46.967 38.073-85.039 85.04-85.039h853.908c46.966 0 85.04 38.072 85.04 85.039V667.4639999999999c0 46.966-38.074 85.039-85.04 85.039z m-853.908-60h853.908c13.808 0 25.04-11.232 25.04-25.039v-90.173H60.006v90.173c0 13.807 11.233 25.039 25.04 25.039z m853.908-617.007H85.046c-13.807 0-25.04 11.232-25.04 25.039v363.37h903.988v-363.37c0-13.806-11.232-25.039-25.04-25.039zM647.834 211.663h231.022v-63.006H647.834zM197.81 326.31600000000003h58.104v-52.822c-11.008-16.724-28.835-25.091-53.482-25.091-39.184 1.766-59.425 25.091-60.746 69.989 2.197 45.332 22.222 69.546 60.085 72.63 27.731 0.434 45.775-13.432 54.143-41.597l-22.449-8.583c-5.282 19.364-15.847 28.825-31.693 28.392-24.214-2.208-36.542-18.931-36.975-50.181 0.877-31.693 13.422-48.427 37.636-50.182 12.318 0 22.449 3.963 30.372 11.886v23.77H197.81v21.789zM361.558 251.04499999999996l-10.564 32.354h-48.86l-11.225-32.354h-23.11l48.86 136.677h19.808l48.86-136.677h-23.769z m-52.162 54.804h34.334l-17.167 50.18-17.167-50.18zM507.479 387.722h28.393v-136.677h-23.11v79.893l1.32 19.81-38.296-99.702h-17.167l-38.295 98.381 1.32-19.147v-79.233h-23.11V387.722h29.052l39.616-102.342 40.277 102.342zM580.769 271.514h62.065v-20.469h-85.175V387.722h81.874v-21.79h-58.765v-33.013h54.143v-22.449h-54.143v-38.956z"  horiz-adv-x="1024" />

    
    <glyph glyph-name="telegraph-pole" unicode="&#60411;" d="M960 576H616.064l-4 128h94.912c6.624-18.592 24.192-32 45.056-32s38.464 13.408 45.056 32H896V768h-285.984l-3.008 96h-158.016l-3.008-96H128v-64h98.944c6.592-18.592 24.192-32 45.056-32s38.464 13.408 45.056 32h126.912l-4.032-128H64v-64h98.944c6.624-18.592 24.192-32 45.056-32s38.464 13.408 45.056 32h184.864l-19.104-608h218.336l-19.104 608h152.864c6.624-18.592 24.192-32 45.056-32s38.464 13.408 45.056 32H960v64zM484.864-32l26.144 832h33.984l26.144-832h-86.272z"  horiz-adv-x="1024" />

    
    <glyph glyph-name="constant-humidity-mode" unicode="&#58889;" d="M872.86811 184.70000000000005c-24.6 14.8-56.3 7.2-71.2-16.9-61.4-100.4-168.5-160.3-285.2-160.3-184.9 0-334.9 150-334.9 334.9 0 8.7 0.5 17.4 1.5 25.6 2 24.1-12.8 46.1-35.8 53.3-22.5 7.7-47.6-1.5-60.4-22L7.96811 272.79999999999995c-15.4-24.6-7.7-56.3 16.4-71.7 24.1-14.8 55.8-7.7 71.2 15.9 53.8-181.3 222.2-313.9 420.4-313.9 153.6 0 293.4 78.3 373.8 209.9 15.4 24.6 7.7 56.9-16.9 71.7zM672.66811 404.2L566.46811 601.9c-4.5 12.9-13.9 23.7-26.7 30.5-8.3 4.6-19.5 7.7-28.4 7.2-21.7 0-41.2-11.4-50.6-29.4L340.46811 384.1c-1.7-2.6-10.7-21.2-11.2-26.4-5.6-17-8.3-34.1-8.3-50.6 0-98.1 85.7-177.5 191.4-177.5 105.2-1 191.4 79 191.4 177 0.1 34.7-11 68.2-31.1 97.6zM512.16811 238.29999999999995c-43.1 0-77.8 32.8-77.8 72.7 0 7.7 1.7 15.9 5 24.6 0.6 1 0.6 2 1.1 3.1 0 0.5 0 0.5 0.6 0.5l70.7 133.1L573.06811 358.1c1.1-2 2.8-4.1 3.9-6.1 8.8-12.3 13.8-26.1 13.8-41-0.2-39.9-34.9-72.7-78.6-72.7zM1001.86811 554.6c-22.5 15.9-53.8 10.8-70.7-10.8C880.06811 729.7 710.06811 866.4 507.76811 866.4c-153.6 0-293.4-78.3-373.8-209.9-14.8-24.6-7.2-56.3 16.9-71.7 24.6-14.8 56.3-7.2 71.2 16.9C283.46811 702 390.46811 762 507.26811 762c184.9 0 334.9-150 334.9-334.9 0-8.7-0.5-17.4-1.5-25.6-1.5-23.6 12.3-45.1 34.3-52.7 5.6-2 11.8-3.1 17.4-3.1 16.9 0 32.8 8.2 42.5 22.5l78.9 113.7c17.8 24 11.7 56.3-11.9 72.7z"  horiz-adv-x="1024" />

    
    <glyph glyph-name="fog-volume-2" unicode="&#58891;" d="M665.8 156.89999999999998l-102.9 207c-3.9 13.3-13.1 24.5-25.3 31.2-7.9 4.6-17.1 7.1-26.6 7.1h-0.1c-20.2-0.1-38.5-11.5-47.4-29.6L346.8 136c-1.5-2.8-2.9-5.6-4.2-8.4l-1.7-3.4c-2.4-4.9-4-10.1-4.8-15.4-5.4-17.7-8.2-35.4-8.2-52.8 0-101.5 82.6-184 184-184s184 82.6 184 184c0.1 36-10.3 70.8-30.1 100.9zM512-22c-43 0-78 35-78 78 0 8.3 1.7 16.8 5.1 26.3 0.4 1.1 0.7 2.1 1 3.2 0.2 0.4 0.3 0.7 0.4 0.9l70.7 143.2 61.2-123c1.1-2.3 2.4-4.4 3.8-6.5 9-13.1 13.8-28.3 13.8-44.1 0-43-35-78-78-78z m57.7 560.7c-16-24.5-9.2-57.4 15.3-73.4 9-5.9 19-8.7 29-8.7 17.3 0 34.2 8.4 44.4 24 2.8 4.3 68.7 107.3 3.9 220.4-32.4 56.6-2.1 111.9-0.3 115.1 14.8 25 6.6 57.4-18.4 72.3-25 15.1-57.7 7-72.7-18.2-2.7-4.4-64.7-110.2-0.6-222 32-55.7 0.4-107.8-0.6-109.5z m-212.6 0c-16.1-24.5-9.2-57.4 15.3-73.4 9-5.9 19-8.7 29-8.7 17.3 0 34.2 8.4 44.4 24 2.8 4.3 68.7 107.3 3.9 220.4-32.4 56.6-2.1 111.9-0.3 115.1 14.8 25 6.6 57.4-18.4 72.3-25 15.1-57.7 7-72.7-18.2-2.7-4.4-64.7-110.2-0.5-222 31.9-55.7 0.3-107.8-0.7-109.5z"  horiz-adv-x="1024" />

    
    <glyph glyph-name="fog-volume-3" unicode="&#58894;" d="M562.79969 363.89699800000005c-3.899976 13.199919-12.999921 24.399851-25.099847 31.09981-7.899952 4.599972-17.099896 7.199956-26.599838 7.299955-20.799873-0.099999-38.799763-11.39993-47.699708-29.599819L346.60101 135.99838899999997c-1.499991-2.799983-2.899982-5.599966-4.199975-8.399949l-1.699989-3.399979c-2.399985-4.89997-3.999976-10.099938-4.799971-15.399906-5.399967-17.699892-8.19995-35.399784-8.19995-52.799678 0-101.49938 82.599496-183.998877 183.998877-183.998877s183.998877 82.599496 183.998877 183.998877c0 35.99978-10.399937 70.799568-30.199816 100.899384l-102.699373 206.998737z m-50.999689-385.897645c-42.999738 0-77.999524 34.999786-77.999524 77.999524 0 8.299949 1.69999 16.799897 5.099969 26.299839 0.399998 1.099993 0.699996 2.099987 0.999994 3.199981 0.199999 0.399998 0.299998 0.699996 0.399998 0.899994L511.000006 229.697817l61.199627-122.999249c1.099993-2.299986 2.399985-4.399973 3.799976-6.499961 8.999945-13.09992 13.799916-28.299827 13.799916-44.099731 0-43.099737-34.999786-78.099523-77.999524-78.099523z m-46.199718 561.196575c-16.299901-24.299852-9.89994-57.29965 14.399912-73.599551 9.099944-6.099963 19.399882-8.999945 29.49982-8.999945 17.099896 0 33.799794 8.19995 44.099731 23.499856 29.599819 44.099731 63.199614 141.199138 1.399992 225.998621-33.999792 46.599716 0.399998 105.799354 2.399985 109.199334 15.199907 24.799849 7.499954 57.29965-17.199895 72.699556-24.899848 15.499905-57.599648 7.799952-72.999555-17.099896-27.89983-44.999725-58.899641-143.499124 2.199987-227.398612 33.299797-45.699721-2.499985-102.199376-3.799977-104.299363zM340.701046 419.996655c3.19998 4.89997 77.999524 121.899256 4.299973 250.398472-41.299748 71.999561-2.499985 141.899134-0.299998 145.599111 14.79991 25.099847 6.59996 57.39965-18.399888 72.399558-24.999847 14.999908-57.699648 6.899958-72.799555-18.199888-2.999982-5.099969-73.499551-125.299235-0.499997-252.598459 40.799751-71.199565 0.399998-137.199163-0.999994-139.599148-15.999902-24.49985-9.199944-57.39965 15.299907-73.399552 8.999945-5.899964 18.999884-8.699947 28.999823-8.699947 17.199895 0.199999 34.199791 8.599948 44.399729 24.099853z m430.697371 250.398472c-41.299748 71.999561-2.499985 141.899134-0.299998 145.599111 14.79991 25.099847 6.59996 57.39965-18.399888 72.399558-24.999847 14.999908-57.699648 6.899958-72.799556-18.199888-2.999982-5.099969-73.499551-125.299235-0.499997-252.598459 40.799751-71.199565 0.399998-137.199163-0.999994-139.599148-15.999902-24.49985-9.199944-57.39965 15.299907-73.399552 8.999945-5.899964 18.999884-8.699947 28.999823-8.699947 17.299894 0 34.199791 8.399949 44.399729 23.999854 3.19998 4.999969 77.999524 121.999255 4.299974 250.498471z"  horiz-adv-x="1024" />

    
    <glyph glyph-name="fog-volume-1" unicode="&#58895;" d="M468.507058 539.491676c-15.297517-24.296057-9.298491-57.290703 13.597794-73.588058 8.598605-6.09901 18.197047-8.99854 27.795489-8.998539 15.997404 0 31.79484 8.198669 41.493266 23.396203 27.795489 43.992861 59.390362 141.177089 1.399773 225.863345-31.994808 46.592439 0.499919 106.082784 2.299627 109.182282 14.29768 24.795976 7.098848 57.290703-16.197372 72.688204-23.396203 15.397501-54.191206 7.798734-68.688853-16.997242-26.295733-44.892715-55.391011-143.376732 2.09966-227.163135 31.094954-45.892552-2.599578-102.383385-3.799384-104.38306z m199.567613-376.938828L563.691611 373.618595c-3.999351 13.597793-13.297842 24.995944-25.69583 31.79484-7.998702 4.699237-17.297193 7.298816-26.995619 7.298815h-0.099984a53.79127 53.79127 0 0 1-48.092195-30.195099L344.327211 141.256304c-1.499757-2.899529-10.098361-22.396365-10.698264-27.79549-5.499108-18.097063-8.298653-36.094142-8.298653-53.79127 0-103.383222 83.786403-187.669544 186.76969-187.669544s186.76969 84.186338 186.76969 187.669544c-0.099984 36.694045-10.59828 72.288269-30.795003 102.883304zM512-19.817555999999968c-43.692909 0-79.187149 35.694207-79.187149 79.587084 0 8.498621 1.699724 17.097225 5.099172 26.695667 0.299951 1.099822 0.79987 2.199643 0.999838 3.299465 0.099984 0.299951 0.299951 0.699886 0.499919 0.999838l71.688366 145.97631 62.089924-125.479637c1.099822-2.299627 2.399611-4.599254 3.899367-6.598929 9.098523-13.397826 13.897745-28.895311 13.897745-44.892714 0.199968-43.992861-35.294272-79.587084-78.987182-79.587084z"  horiz-adv-x="1024" />

    
    <glyph glyph-name="projector" unicode="&#58897;" d="M156.9 471.5v22.7c0 0.4 0.3 0.8 0.8 0.8h159.9c0.4 0 0.8-0.3 0.8-0.8v-22.7c0-0.4-0.3-0.8-0.8-0.8h-160c-0.4 0.1-0.7 0.4-0.7 0.8zM164.9 160.20000000000005V184c0 0.1 0.1 0.2 0.2 0.2h161c0.1 0 0.2-0.1 0.2-0.2v-23.8c0-0.1-0.1-0.2-0.2-0.2h-161c-0.1 0-0.2 0.1-0.2 0.2zM697.7 160.20000000000005V184c0 0.1 0.1 0.2 0.2 0.2h161c0.1 0 0.2-0.1 0.2-0.2v-23.8c0-0.1-0.1-0.2-0.2-0.2h-161c-0.2 0-0.2 0.1-0.2 0.2zM156.9 415v22.7c0 0.4 0.3 0.8 0.8 0.8h127.7c0.4 0 0.8-0.3 0.8-0.8V415c0-0.4-0.3-0.8-0.8-0.8H157.6c-0.4 0.1-0.7 0.4-0.7 0.8zM657.3 309.29999999999995c-60.1 0-109 48.9-109 109s48.9 109 109 109 109-48.9 109-109-48.9-109-109-109z m0 193.8c-46.7 0-84.8-38-84.8-84.8s38-84.8 84.8-84.8 84.8 38 84.8 84.8-38.1 84.8-84.8 84.8zM616 393.2c-13.5 14.7-13.6 35.5 0 50.2 4.2 4.6-2.6 11.4-6.8 6.8-17.2-18.6-17.2-45.3 0-63.9 4.2-4.5 11.1 2.3 6.8 6.9zM915.6 228.60000000000002H108.4C83.9 228.60000000000002 64 248.5 64 273V531.3c0 24.5 19.9 44.4 44.4 44.4h443.2C583 596.9 619.5 608 657.3 608s74.3-11.1 105.7-32.3h152.6c24.5 0 44.4-19.9 44.4-44.4V273c0-24.5-19.9-44.4-44.4-44.4zM108.4 551.5c-11.1 0-20.2-9-20.2-20.2V273c0-11.1 9-20.2 20.2-20.2h807.2c11.1 0 20.2 9 20.2 20.2V531.3c0 11.1-9 20.2-20.2 20.2H755.4l-3.1 2.2c-28 19.7-60.8 30.1-94.9 30.1s-66.9-10.4-94.9-30.1l-3.1-2.2h-451zM657.3 228.60000000000002c-104.6 0-189.7 85.1-189.7 189.7S552.7 608 657.3 608 847 522.9 847 418.3s-85.1-189.7-189.7-189.7z m0 355.2c-91.2 0-165.5-74.2-165.5-165.5S566 252.79999999999995 657.3 252.79999999999995 822.8 327 822.8 418.3s-74.3 165.5-165.5 165.5zM641.2 374.70000000000005m-6.5 0a6.5 6.5 0 1 1 13 0 6.5 6.5 0 1 1-13 0Z"  horiz-adv-x="1024" />

    
    <glyph glyph-name="sound" unicode="&#58898;" d="M786.5-64h-549c-24.5 0-44.4 19.9-44.4 44.4V787.6c0 24.5 19.9 44.4 44.4 44.4h548.9c24.5 0 44.4-19.9 44.4-44.4v-807.2c0-24.5-19.9-44.4-44.3-44.4z m-549 871.8c-11.1 0-20.2-9-20.2-20.2v-807.2c0-11.1 9-20.2 20.2-20.2h548.9c11.1 0 20.2 9 20.2 20.2V787.6c0 11.1-9 20.2-20.2 20.2H237.5zM512 160h-0.2c-44 1-78.5 35.6-78.5 78.7s34.5 77.7 78.5 78.7c44.4-1 78.9-35.6 78.9-78.7S556.2 161 512.2 160h-0.2z m-0.2 141.3c-34.8-0.8-62.4-28.3-62.4-62.6 0-34.2 27.5-61.7 62.6-62.6 34.5 0.9 62.6 28.9 62.6 62.6 0 34.3-27.6 61.7-62.8 62.6zM512 53.10000000000002h-0.3c-103.9 2.4-185.4 84-185.4 185.6 0 101.7 81.4 183.2 185.4 185.6 104.5-2.4 185.9-84 185.9-185.6 0-101.7-81.4-183.2-185.3-185.6h-0.3z m-0.3 347c-90.1-2.1-161.1-73-161.1-161.4 0-88.3 70.9-159.2 161.4-161.4 90.5 2.3 161.4 73.1 161.4 161.4 0 88.4-71 159.3-161.7 161.4zM512 551h-0.2c-33 0.8-58.8 26.7-58.8 59s25.8 58.2 58.8 59c33.4-0.8 59.2-26.7 59.2-59s-25.8-58.2-58.8-59h-0.2z m-0.2 101.9c-23.8-0.6-42.7-19.4-42.7-42.8 0-23 19.2-42.2 42.9-42.8 24 0.7 42.8 19.4 42.8 42.8s-18.9 42.2-43 42.8zM512 472.8h-0.3c-76.8 1.8-136.9 62.1-136.9 137.2s60.1 135.4 136.9 137.2c77.3-1.8 137.5-62.1 137.5-137.2s-60.1-135.4-136.9-137.2h-0.3z m-0.3 250.2c-63-1.5-112.7-51.1-112.7-113 0-61.8 49.6-111.4 113-113 63.4 1.6 113 51.2 113 113 0 61.9-49.8 111.5-113.3 113zM746.7 767.3c-11.1 0-18.5-7.8-18.5-19.6 0-11.7 7.4-19.6 18.5-19.6s18.5 7.8 18.5 19.6c0 11.7-7.4 19.6-18.5 19.6zM310.2-4.899999999999977v22.7c0 0.4 0.3 0.8 0.8 0.8h402c0.4 0 0.8-0.3 0.8-0.8v-22.7c0-0.4-0.3-0.8-0.8-0.8H310.9c-0.4 0-0.7 0.4-0.7 0.8z"  horiz-adv-x="1024" />

    
    <glyph glyph-name="droplight" unicode="&#58903;" d="M499.6 650.2v181c0 0.4 0.3 0.8 0.8 0.8h23.4c0.4 0 0.8-0.3 0.8-0.8v-181c0-0.4-0.3-0.8-0.8-0.8h-23.4c-0.5 0.1-0.8 0.4-0.8 0.8zM917.1 241.60000000000002H106.9V254c0 223.4 181.7 405.1 405.1 405.1S917.1 477.4 917.1 254v-12.4zM132 266.5h760c-6.6 203.9-174.5 367.8-380 367.8S138.5 470.4 132 266.5zM512 74.10000000000002c-93.1 0-168.8 75.7-168.8 168.8h24.9c0-79.4 64.6-143.9 143.9-143.9 79.4 0 143.9 64.6 143.9 143.9h24.9c0-93-75.7-168.8-168.8-168.8zM499.6-63.299999999999955v87c0 0.4 0.3 0.8 0.8 0.8h23.4c0.4 0 0.8-0.3 0.8-0.8v-87c0-0.4-0.3-0.8-0.8-0.8h-23.4c-0.5 0.1-0.8 0.4-0.8 0.8zM785 153.10000000000002h-87c-0.4 0-0.8 0.3-0.8 0.8v23.4c0 0.4 0.3 0.7 0.8 0.7h87c0.4 0 0.8-0.3 0.8-0.8v-23.4c0-0.4-0.4-0.7-0.8-0.7zM239 166.89999999999998h87c0.4 0 0.8-0.3 0.8-0.8v-23.4c0-0.4-0.3-0.8-0.8-0.8h-87c-0.4 0-0.8 0.3-0.8 0.8v23.4c0 0.5 0.4 0.8 0.8 0.8zM694.2-2.7999999999999545l-61.5 61.5c-0.3 0.3-0.3 0.8 0 1.1l16.5 16.5c0.3 0.3 0.8 0.3 1.1 0l61.5-61.5c0.3-0.3 0.3-0.8 0-1.1l-16.5-16.5c-0.3-0.2-0.8-0.2-1.1 0zM312.2 7l61.5 61.5c0.3 0.3 0.8 0.3 1.1 0l16.5-16.5c0.3-0.3 0.3-0.8 0-1.1l-61.5-61.5c-0.3-0.3-0.8-0.3-1.1 0L312.2 6c-0.3 0.3-0.3 0.7 0 1z"  horiz-adv-x="1024" />

    
    <glyph glyph-name="rice-cooker" unicode="&#58905;" d="M851-31.700000000000045H173c-24.5 0-44.4 19.9-44.4 44.4V634.2c0 24.5 19.9 44.4 44.4 44.4h678c24.5 0 44.4-19.9 44.4-44.4v-621.5c0-24.5-19.9-44.4-44.4-44.4zM173 654.4c-11.1 0-20.2-9-20.2-20.2v-621.5c0-11.1 9-20.2 20.2-20.2h678c11.1 0 20.2 9 20.2 20.2V634.2c0 11.1-9 20.2-20.2 20.2H173zM152.8 267H64V392.1c0 42.3 34.4 76.7 76.7 76.7h12.1V267z m-64.6 24.2h40.4v152c-23.1-5.5-40.4-26.3-40.4-51.1v-100.9zM960 267h-88.8V468.8h12.1c42.3 0 76.7-34.4 76.7-76.7V267z m-64.6 24.2h40.4V392.1c0 24.8-17.2 45.6-40.4 51.1v-152zM512 153.89999999999998c-47.5 0-86.1 38.6-86.1 86.1v94.2c0 47.5 38.6 86.1 86.1 86.1s86.1-38.6 86.1-86.1V240c0-47.4-38.6-86.1-86.1-86.1z m0 242.2c-34.1 0-61.9-27.8-61.9-61.9V240c0-34.1 27.8-61.9 61.9-61.9s61.9 27.8 61.9 61.9v94.2c0 34.1-27.8 61.9-61.9 61.9zM725.9 674.6h-24.2v80.7c0 11.1-9 20.2-20.2 20.2h-339c-11.1 0-20.2-9-20.2-20.2v-80.7h-24.2v80.7c0 24.5 19.9 44.4 44.4 44.4h339c24.5 0 44.4-19.9 44.4-44.4v-80.7zM140.7 537.4h742.6v-24.2H140.7zM583.9 307.29999999999995H440.1c-0.4 0-0.8 0.3-0.8 0.8v22.7c0 0.4 0.3 0.8 0.8 0.8h143.8c0.4 0 0.8-0.3 0.8-0.8v-22.7c-0.1-0.4-0.4-0.8-0.8-0.8zM583.9 242.70000000000005H440.1c-0.4 0-0.8 0.3-0.8 0.8v22.7c0 0.4 0.3 0.8 0.8 0.8h143.8c0.4 0 0.8-0.3 0.8-0.8v-22.7c-0.1-0.4-0.4-0.8-0.8-0.8z"  horiz-adv-x="1024" />

    
    <glyph glyph-name="printer" unicode="&#58899;" d="M898.7 359.79999999999995H125.3c-0.4 0-0.8 0.3-0.8 0.8v22.7c0 0.4 0.3 0.8 0.8 0.8h773.4c0.4 0 0.8-0.3 0.8-0.8v-22.7c0-0.5-0.4-0.8-0.8-0.8zM753.4 246.79999999999995H270.6c-0.4 0-0.8 0.3-0.8 0.8v22.7c0 0.4 0.3 0.8 0.8 0.8h482.8c0.4 0 0.8-0.3 0.8-0.8v-22.7c0-0.5-0.4-0.8-0.8-0.8zM753.4 149.89999999999998H270.6c-0.4 0-0.8 0.3-0.8 0.8v22.7c0 0.4 0.3 0.8 0.8 0.8h482.8c0.4 0 0.8-0.3 0.8-0.8v-22.7c0-0.5-0.4-0.8-0.8-0.8zM753.4 53H270.6c-0.4 0-0.8 0.3-0.8 0.8v22.7c0 0.4 0.3 0.8 0.8 0.8h482.8c0.4 0 0.8-0.3 0.8-0.8v-22.7c0-0.4-0.4-0.8-0.8-0.8zM777 674.6h-24.2v113c0 11.1-7.9 20.2-17.6 20.2H288.8c-9.7 0-17.6-9-17.6-20.2v-113H247v113c0 24.5 18.8 44.4 41.9 44.4h446.3c23.1 0 41.9-19.9 41.9-44.4v-113zM915.6 113.60000000000002h-80.7v24.2h80.7c11.1 0 20.2 9 20.2 20.2V642.3c0 11.1-9 20.2-20.2 20.2H108.4c-11.1 0-20.2-9-20.2-20.2V158c0-11.1 9-20.2 20.2-20.2h80.7v-24.2h-80.7C83.9 113.60000000000002 64 133.5 64 158V642.3c0 24.5 19.9 44.4 44.4 44.4h807.2c24.5 0 44.4-19.9 44.4-44.4V158c0-24.5-19.9-44.4-44.4-44.4zM796.9-64H227.1c-28.1 0-50.1 28.2-50.1 64.3V367.9h24.2v-367.6c0-21.7 11.8-40.1 25.9-40.1h569.8c14 0 25.9 18.3 25.9 40.1V367.9H847v-367.6c0-36.1-22-64.3-50.1-64.3zM834.9 513.1h-0.3c-24.7 0.6-44.1 20.1-44.1 44.4s19.4 43.8 44.1 44.4c25.3-0.6 44.7-20.1 44.7-44.4s-19.4-43.8-44.1-44.4h-0.3z m-0.3 64.6c-10.9-0.3-19.9-9.1-19.9-20.2 0-11 8.8-19.8 20.2-20.2 11.3 0.4 20.2 9.2 20.2 20.2 0 11.1-9 19.9-20.5 20.2z"  horiz-adv-x="1024" />

    
    <glyph glyph-name="fan" unicode="&#58920;" d="M512 81.89999999999998h-0.3C301.6 86.79999999999995 137 251.60000000000002 137 457c0 205.4 164.6 370.1 374.8 375C722.4 827.1 887 662.4 887 457S722.4 86.79999999999995 512.3 81.89999999999998h-0.3z m-0.3 725.6C315.6 802.9 161.5 648.9 161.5 457S315.4 111.20000000000005 512 106.5c196.5 4.7 350.5 158.7 350.5 350.5 0 191.9-154.1 345.9-350.8 350.5zM512.1 415.1c18.2 0.4 32.7 15 32.7 32.7 0 17.8-14.5 32.3-32.7 32.7-18.2-0.4-32.7-15-32.7-32.7 0-17.8 14.5-32.3 32.7-32.7zM674.9-64H349.1c-0.4 0-0.8 0.3-0.8 0.8v23c0 0.4 0.3 0.8 0.8 0.8h325.8c0.4 0 0.8-0.3 0.8-0.8v-23c0-0.5-0.4-0.8-0.8-0.8zM499.7-63.299999999999955V98.89999999999998c0 0.4 0.3 0.8 0.8 0.8h23c0.4 0 0.8-0.3 0.8-0.8v-162.2c0-0.4-0.3-0.8-0.8-0.8h-23c-0.4 0.1-0.8 0.4-0.8 0.8zM568.7 490l-8.6 8.2c-33.6 32-62.5 22.9-80.9 9.5l-16-11.7 0.5 19.9c0.6 25.9-11.7 40.6-25.9 57.5-12.6 15-26.9 32-31.4 58.2-4.6 26.1 4.2 52.1 24.1 71.2 21.1 20.2 51 29.7 76.3 24.1 43.8-9.7 77.8-36.9 93.3-74.7 18.5-45.1 9.6-99.2-24.9-152.2l-6.5-10z m-54.5 49.5c15 0 32.2-4.9 50.4-19.2 25.9 44.2 32.1 88.1 17.2 124.4-13.2 32.2-41.4 54.6-79.3 63-18.7 4.2-42.3-3.6-58.5-19.1-8.9-8.5-23.1-26.8-18.3-53.6 3.7-21 15.1-34.6 27.1-49 12.6-15 25.5-30.5 29.4-53.9 8.7 4.1 19.6 7.4 32 7.4zM356.9 250.60000000000002c-7.8 0-15.8 1.1-23.7 3.4-28 8.2-51.2 29.4-59.1 54-13.5 42.8-7 85.9 18 118.2 29.8 38.5 81 57.9 144.3 54.6l11.8-0.6-2.8-11.5c-11-45.1 11.5-65.6 32.2-74.8l18.1-8.1-17.4-9.5c-22.7-12.4-29.3-30.4-36.9-51.2-6.7-18.4-14.3-39.3-34.7-56.3-14-12-31.5-18.2-49.8-18.2z m65.8 210.9c-50.6 0-91.1-16.6-114.9-47.3-21.3-27.5-26.6-63.1-14.9-100.2 5.8-18.3 24.2-34.8 45.8-41.1 11.8-3.4 34.7-6.6 55.6 10.9 16.3 13.6 22.4 30.3 28.8 48 6.7 18.4 13.6 37.3 31.9 52.3-24.7 17-35.6 44.2-30.8 77.4h-1.5zM657.7 271.5c-5.3 0-10.6 0.4-15.9 1.1-48.3 6.6-90.7 41.2-119.4 97.6l-5.4 10.5 11.4 3.3c44.5 13.1 51.1 42.7 48.7 65.3l-2.1 19.8 17-10.3c22.1-13.5 41-10.2 62.8-6.3 19.3 3.4 41.1 7.2 66-1.9s43-29.7 49.6-56.4c7-28.4 0.2-59.1-17.2-78.2-26.3-28.8-60.4-44.5-95.5-44.5z m-112.3 97.6c25.4-44.6 60.3-71.8 99.1-77.1 34.5-4.7 68 8.5 94.2 37.2 12.9 14.2 18 38.4 12.6 60.2-2.9 11.9-11.7 33.4-37.3 42.7-19.9 7.3-37.4 4.2-55.9 1-19.3-3.4-39.1-6.9-61.3 1.5-1.6-22.3-12.4-50.1-51.4-65.5z"  horiz-adv-x="1024" />

    
    <glyph glyph-name="pc" unicode="&#58921;" d="M786.5-64h-549c-24.5 0-44.4 19.9-44.4 44.4V787.6c0 24.5 19.9 44.4 44.4 44.4h548.9c24.5 0 44.4-19.9 44.4-44.4v-807.2c0-24.5-19.9-44.4-44.3-44.4z m-549 871.8c-11.1 0-20.2-9-20.2-20.2v-807.2c0-11.1 9-20.2 20.2-20.2h548.9c11.1 0 20.2 9 20.2 20.2V787.6c0 11.1-9 20.2-20.2 20.2H237.5zM689.6 592.3H334.4c-23.1 0-42 18.8-42 42v64.6c0 23.1 18.8 42 42 42h355.2c23.1 0 42-18.8 42-42v-64.6c0-23.2-18.9-42-42-42zM334.4 721.4c-12.5 0-22.6-10.1-22.6-22.6v-64.6c0-12.5 10.1-22.6 22.6-22.6h355.2c12.5 0 22.6 10.1 22.6 22.6v64.6c0 12.5-10.1 22.6-22.6 22.6H334.4zM689.6 374.29999999999995H334.4c-23.1 0-42 18.8-42 42v64.6c0 23.1 18.8 42 42 42h355.2c23.1 0 42-18.8 42-42v-64.6c0-23.2-18.9-42-42-42zM334.4 503.5c-12.5 0-22.6-10.1-22.6-22.6v-64.6c0-12.5 10.1-22.6 22.6-22.6h355.2c12.5 0 22.6 10.1 22.6 22.6v64.6c0 12.5-10.1 22.6-22.6 22.6H334.4zM512 73.60000000000002h-0.2c-44.9 1-80.1 36.3-80.1 80.3s35.2 79.3 80.1 80.3c45.4-1 80.5-36.3 80.5-80.3s-35.2-79.3-80.1-80.3h-0.2z m-0.2 141.3c-33.8-0.8-60.7-27.6-60.7-60.9s26.8-60 61-61c33.6 0.9 60.9 28.2 60.9 61-0.1 33.3-26.9 60.1-61.2 60.9z"  horiz-adv-x="1024" />

    
    <glyph glyph-name="desk-lamp" unicode="&#58922;" d="M881.5 132h-739c-13.4 0-25.8 6.4-33.9 17.4-8.4 11.5-10.9 26.6-6.5 40.3l132.2 416c5.7 18.1 22 30.3 40.4 30.3h474.6c18.4 0 34.6-12.2 40.4-30.3l132.2-416c4.4-13.7 1.9-28.8-6.5-40.3-8.2-11-20.5-17.4-33.9-17.4zM274.7 612c-7.9 0-14.9-5.4-17.5-13.5L125 182.5c-2.1-6.5-0.9-13.5 3-18.9 3.5-4.8 8.8-7.6 14.5-7.6h739c5.7 0 11 2.8 14.5 7.6 3.9 5.4 5.1 12.4 3 18.9l-132.2 416c-2.6 8.1-9.6 13.5-17.5 13.5H274.7zM751.2-64H272.8c-0.4 0-0.8 0.3-0.8 0.8v22.5c0 0.4 0.3 0.8 0.8 0.8h478.5c0.4 0 0.8-0.3 0.8-0.8v-22.5c-0.1-0.5-0.4-0.8-0.9-0.8zM500-47.200000000000045V143.29999999999995c0 0.4 0.3 0.8 0.8 0.8h22.5c0.4 0 0.8-0.3 0.8-0.8v-190.5c0-0.4-0.3-0.8-0.8-0.8h-22.5c-0.5 0-0.8 0.3-0.8 0.8zM622.6 613.3h-19.2c0 50.4-41 91.3-91.4 91.3s-91.4-41-91.4-91.3h-19.2c0 61 49.6 110.5 110.6 110.5s110.6-49.5 110.6-110.5zM521.6 831.4v-55.9c0-0.3-0.3-0.6-0.6-0.6h-18c-0.3 0-0.6 0.3-0.6 0.6V831.4c0 0.3 0.3 0.6 0.6 0.6h18c0.3 0 0.6-0.3 0.6-0.6zM667.1 783.9l-30.8-53.4c-0.2-0.3-0.5-0.4-0.8-0.2l-15.6 9c-0.3 0.2-0.4 0.5-0.2 0.8l30.8 53.4c0.2 0.3 0.5 0.4 0.8 0.2l15.6-9c0.3-0.1 0.4-0.5 0.2-0.8zM356.9 783.9l30.8-53.4c0.2-0.3 0.5-0.4 0.8-0.2l15.6 9c0.3 0.2 0.4 0.5 0.2 0.8l-30.8 53.4c-0.2 0.3-0.5 0.4-0.8 0.2l-15.6-9c-0.3-0.1-0.4-0.5-0.2-0.8z"  horiz-adv-x="1024" />

    
    <glyph glyph-name="fridge-light" unicode="&#58902;" d="M762.2-64H261.8c-24.5 0-44.4 19.9-44.4 44.4V787.6c0 24.5 19.9 44.4 44.4 44.4h500.5c24.5 0 44.4-19.9 44.4-44.4v-807.2c-0.1-24.5-20-44.4-44.5-44.4zM261.8 807.8c-11.1 0-20.2-9-20.2-20.2v-807.2c0-11.1 9-20.2 20.2-20.2h500.5c11.1 0 20.2 9 20.2 20.2V787.6c0 11.1-9 20.2-20.2 20.2H261.8zM229.5 428.4h565v-24.2h-565zM308 562.9V689.4c0 0.4 0.3 0.8 0.8 0.8h22.7c0.4 0 0.8-0.3 0.8-0.8v-126.5c0-0.4-0.3-0.8-0.8-0.8h-22.7c-0.5 0.1-0.8 0.4-0.8 0.8zM308 128.79999999999995V255.29999999999995c0 0.4 0.3 0.8 0.8 0.8h22.7c0.4 0 0.8-0.3 0.8-0.8v-126.5c0-0.4-0.3-0.8-0.8-0.8h-22.7c-0.5 0-0.8 0.4-0.8 0.8z"  horiz-adv-x="1024" />

    
    <glyph glyph-name="laptop" unicode="&#58923;" d="M901.6 244.60000000000002H122.4V755.3c0 24.5 19.9 44.4 44.4 44.4h690.4c24.5 0 44.4-19.9 44.4-44.4v-510.7z m-755 24.2h730.7V755.3c0 11.1-9 20.2-20.2 20.2H166.8c-11.1 0-20.2-9-20.2-20.2v-486.5zM915.6-31.700000000000045H108.4c-13.7 0-26.4 6.2-34.9 17s-11.5 24.6-8.2 37.9l59.9 245.6h773.6l59.9-245.6c3.2-13.3 0.3-27.1-8.2-37.9-8.5-10.8-21.2-17-34.9-17zM144.2 244.60000000000002L88.8 17.5c-1.5-6.1-0.1-12.3 3.7-17.2 3.8-4.9 9.6-7.7 15.9-7.7h807.2c6.2 0 12 2.8 15.9 7.7 3.8 4.9 5.2 11.2 3.7 17.2l-55.4 227.1H144.2zM768.1 321.4H255.9c-24.5 0-44.4 19.9-44.4 44.4V678.5c0 24.5 19.9 44.4 44.4 44.4H768c24.5 0 44.4-19.9 44.4-44.4v-312.8c0.1-24.4-19.9-44.3-44.3-44.3zM255.9 698.7c-11.1 0-20.2-9-20.2-20.2v-312.8c0-11.1 9-20.2 20.2-20.2H768c11.1 0 20.2 9 20.2 20.2V678.5c0 11.1-9 20.2-20.2 20.2H255.9z"  horiz-adv-x="1024" />

    
    <glyph glyph-name="heater" unicode="&#58931;" d="M790.2-42.299999999999955H233.8c-24.8 0-45 20.2-45 45V787c0 24.8 20.2 45 45 45h556.4c24.8 0 45-20.2 45-45v-784.3c0-24.8-20.2-45-45-45zM233.8 807.5c-11.3 0-20.5-9.2-20.5-20.5v-784.3c0-11.3 9.2-20.5 20.5-20.5h556.4c11.3 0 20.5 9.2 20.5 20.5V787c0 11.3-9.2 20.5-20.5 20.5H233.8zM201.1 364.20000000000005H823v-24.5H201.1zM404.5 195.89999999999998c-28.3 12.6-62.2 0-75.5-28.3-12.6-28.3 0-62.2 28.3-75.5 28.3-12.6 62.2 0 75.5 28.3 13.3 29.1 0.8 62.9-28.3 75.5z m-34.7-96.7l-7.9 1.6-6.3 5.5s12.6 32.3 17.3 42.5c4.7 10.2 21.2 40.9 21.2 40.9l7.9-1.6 6.3-5.5s-12.6-32.3-17.3-42.5c-5.4-10.3-21.2-40.9-21.2-40.9z m0 0M666.3 195.89999999999998c-28.3 12.6-62.2 0-75.5-28.3-12.6-28.3 0-62.2 28.3-75.5 28.3-12.6 62.2 0 75.5 28.3 13.4 29.1 0.8 62.9-28.3 75.5z m-34.6-96.7l-7.9 1.6-6.3 5.5s12.6 32.3 17.3 42.5c4.7 10.2 21.2 40.9 21.2 40.9l7.9-1.6 6.3-5.5s-12.6-32.3-17.3-42.5c-5.5-10.3-21.2-40.9-21.2-40.9z m0 0M398.8 480c0-6.2 3.3-11.9 8.7-15 5.4-3.1 12-3.1 17.3 0 5.4 3.1 8.7 8.8 8.7 15 0 6.2-3.3 11.9-8.7 15-5.4 3.1-12 3.1-17.3 0-5.4-3.1-8.7-8.8-8.7-15zM462.8 480c0-6.2 3.3-11.9 8.7-15 5.4-3.1 12-3.1 17.3 0 5.4 3.1 8.7 8.8 8.7 15 0 6.2-3.3 11.9-8.7 15-5.4 3.1-12 3.1-17.3 0-5.4-3.1-8.7-8.8-8.7-15zM544.1 462.7c-9.4 0-17.3 7.9-17.3 17.3s7.9 17.3 17.3 17.3 17.3-7.9 17.3-17.3-7.9-17.3-17.3-17.3zM590.8 480c0-9.6 7.8-17.3 17.3-17.3 9.6 0 17.3 7.8 17.3 17.3 0 9.6-7.8 17.3-17.3 17.3s-17.3-7.7-17.3-17.3zM298.5-54.10000000000002V-30h99.7v-24.1c0-5.5-7.3-9.9-16.4-9.9h-66.9c-9.1 0-16.4 4.4-16.4 9.9zM625.8-54.10000000000002V-30h99.7v-24.1c0-5.5-7.3-9.9-16.4-9.9h-66.9c-9.1 0-16.4 4.4-16.4 9.9z"  horiz-adv-x="1024" />

    
    <glyph glyph-name="electric-kettle" unicode="&#58935;" d="M793 432.4h-2.8l0.5 25.6c19.7-0.2 38.7 4.4 55.3 14 54.9 31.6 71.1 106.9 36.1 167.8-35.1 60.9-108.3 84.7-163.2 53-17.8-10.2-32.2-25.5-41.7-44.3l-22.8 11.6c11.8 23.1 29.7 42.1 51.7 54.8 67.2 38.7 156 10.7 198.1-62.4 42.1-73.1 21.7-164-45.5-202.7-19.8-11.4-42.5-17.4-65.7-17.4zM782-64H162.4c-25.9 0-46.9 21-46.9 46.9V134.29999999999995c0 277.1 40.4 595.3 355.1 595.3 321.3 0 358.4-339.7 358.4-595.3v-151.4c-0.1-25.9-21.1-46.9-47-46.9zM470.5 704C239.6 704 141 533.6 141 134.29999999999995v-151.4c0-11.8 9.6-21.3 21.3-21.3H782c11.8 0 21.3 9.6 21.3 21.3V134.29999999999995c0 394-102.6 569.7-332.8 569.7zM570.3 704H374.1v81.1C374.1 811 395.2 832 421 832h102.4c25.9 0 46.9-21.1 46.9-46.9V704z m-170.6 25.6h145.1v55.5c0 11.8-9.6 21.3-21.3 21.3H421c-11.8 0-21.3-9.6-21.3-21.3v-55.5zM185.8 549.8l-74.1 74.1C98 637.6 94.1 657.2 101.5 675c7.4 17.9 24 29 43.4 29h190.8v-25.6H144.9c-8.9 0-16.3-4.9-19.7-13.2-3.4-8.3-1.7-16.9 4.6-23.3l74.1-74.1-18.1-18zM800.7 106.70000000000005h-657c-7.1 0-12.8 5.7-12.8 12.8 0 7.1 5.7 12.8 12.8 12.8h657.1c7.1 0 12.8-5.7 12.8-12.8-0.1-7.1-5.8-12.8-12.9-12.8z"  horiz-adv-x="1024" />

    
    <glyph glyph-name="kettle" unicode="&#58936;" d="M916 97.39999999999998H108c-8.7 0-15.7 5.4-15.7 12.1 0 6.7 7 12.1 15.7 12.1h808c8.7 0 15.7-5.4 15.7-12.1 0-6.6-7-12.1-15.7-12.1zM907-64H117c-12.1 0-23.3 4.8-31.8 13.4-8.5 8.8-13 20.3-12.7 32.6C82.2 327.20000000000005 242.4 525.3 512 525.3s429.8-198 439.5-543.3c0.3-12.2-4.2-23.8-12.7-32.6-8.4-8.6-19.7-13.4-31.8-13.4zM512 501c-254.7 0-406-189.4-415.3-519.7-0.2-5.6 1.9-11 5.8-15 3.8-3.9 8.9-6.1 14.4-6.1H907c5.5 0 10.6 2.2 14.4 6.1 3.9 4 6 9.3 5.8 15C918 311.6 766.7 501 512 501zM293.3 447.9c-23.3 39.1-35.6 84-35.6 129.8C257.7 717.9 371.8 832 512 832s254.3-114.1 254.3-254.3c0-42.8-10.9-85.2-31.4-122.5l-21.2 11.7c18.6 33.7 28.4 72 28.4 110.8 0 126.9-103.2 230.1-230.1 230.1S281.9 704.6 281.9 577.7c0-41.4 11.1-82 32.2-117.4l-20.8-12.4zM166 327.70000000000005l-44.6 35.8c-9.2 7.4-15 18-16.3 29.8s2.1 23.4 9.5 32.6l7.9 9.8c7.4 9.2 18 15 29.8 16.3 11.8 1.3 23.4-2.1 32.6-9.5l44.6-35.8-63.5-79z m-8.9 100.4c-0.7 0-1.5 0-2.2-0.1-5.4-0.6-10.2-3.2-13.6-7.4l-7.9-9.8c-3.4-4.2-4.9-9.5-4.3-14.8 0.6-5.4 3.2-10.2 7.4-13.5l25.8-20.7 33.1 41.3-25.8 20.7c-3.5 2.8-8 4.3-12.5 4.3zM499.9 601.9h24.2v-80.7h-24.2zM592 597.9H432c-0.4 0-0.8 0.3-0.8 0.8v22.7c0 0.4 0.3 0.8 0.8 0.8h160c0.4 0 0.8-0.3 0.8-0.8v-22.7c-0.1-0.5-0.4-0.8-0.8-0.8z"  horiz-adv-x="1024" />

    
    <glyph glyph-name="ac" unicode="&#58940;" d="M918 214.39999999999998H106c-23.2 0-42 18.8-42 42V680.9c0 23.2 18.8 42 42 42h812c23.2 0 42-18.8 42-42v-424.5c0-23.2-18.8-42-42-42zM106 698.7c-9.8 0-17.8-8-17.8-17.8v-424.5c0-9.8 8-17.8 17.8-17.8h812c9.8 0 17.8 8 17.8 17.8V680.9c0 9.8-8 17.8-17.8 17.8H106zM76.1 344.20000000000005h871.8V320H76.1zM866.4 577.6H738.8c-0.4 0-0.8 0.3-0.8 0.8v22.7c0 0.4 0.3 0.8 0.8 0.8h127.7c0.4 0 0.8-0.3 0.8-0.8v-22.7c-0.1-0.4-0.5-0.8-0.9-0.8zM500 48.200000000000045v79.2c0 0.4 0.3 0.8 0.7 0.8h22.7c0.4 0 0.8-0.3 0.8-0.8v-79.2c0-0.4-0.3-0.8-0.8-0.8h-22.7c-0.4 0.1-0.7 0.4-0.7 0.8zM910.7 43.39999999999998l-67.4 67.4c-0.3 0.3-0.3 0.8 0 1.1l16.1 16.1c0.3 0.3 0.8 0.3 1.1 0l67.4-67.4c0.3-0.3 0.3-0.8 0-1.1l-16.1-16.1c-0.4-0.3-0.9-0.3-1.1 0zM294.4 52.200000000000045l43.6 75.6c0.2 0.4 0.7 0.5 1 0.3l19.7-11.4c0.4-0.2 0.5-0.7 0.3-1l-43.6-75.6c-0.2-0.4-0.7-0.5-1-0.3l-19.7 11.4c-0.3 0.2-0.5 0.7-0.3 1zM731.6 52.200000000000045L688 127.79999999999995c-0.2 0.4-0.7 0.5-1 0.3l-19.7-11.4c-0.4-0.2-0.5-0.7-0.3-1l43.6-75.6c0.2-0.4 0.7-0.5 1-0.3l19.7 11.4c0.3 0.2 0.5 0.7 0.3 1zM98.2 60.5l67.4 67.4c0.3 0.3 0.8 0.3 1.1 0l16.1-16.1c0.3-0.3 0.3-0.8 0-1.1l-67.4-67.4c-0.3-0.3-0.8-0.3-1.1 0l-16.1 16.1c-0.3 0.4-0.3 0.9 0 1.1z"  horiz-adv-x="1024" />

    
    <glyph glyph-name="water-dispenser" unicode="&#58942;" d="M852-64H172c-24.6 0-44.5 19.5-44.5 43.4V788.6c0 24 20 43.4 44.5 43.4h680c24.6 0 44.5-19.5 44.5-43.4v-809.1c0-24-20-43.5-44.5-43.5zM172 809.8c-12 0-21.8-9.6-21.8-21.3v-809.1c0-11.7 9.8-21.3 21.8-21.3h680c12 0 21.8 9.6 21.8 21.3V788.6c0 11.7-9.8 21.3-21.8 21.3H172zM139.8 295h744.4v-24.3H139.8zM588 412.3h113.3v-16.2H588zM369 603h20.8l11.6 61.3c1.4 7.2 11.9 10.7 11.9 24.1v53.8h-67.9v-53.8c0-11.2 10.3-16.8 11.9-24.1 1.6-7.4 11.7-61.3 11.7-61.3zM634.2 603H655s10.2 54 11.6 61.3c1.4 7.2 11.9 10.7 11.9 24.1v53.8h-67.9v-53.8c0-11.2 10.3-16.8 11.9-24.1 1.7-7.4 11.7-61.3 11.7-61.3zM681 286.9h-72.7c-8.2 0-15.1 6.2-16.1 14.3l-16.8 145.6c-0.5 4.6 0.9 9.2 4 12.6 3.1 3.4 7.5 5.4 12.1 5.4h106.3c4.6 0 9-2 12.1-5.4 3.1-3.4 4.5-8 4-12.6L697 301.20000000000005c-0.9-8.1-7.8-14.3-16-14.3z m16.8 161.8H591.4l16.8-145.6H681v-8.1 8.1l16.8 145.6z"  horiz-adv-x="1024" />

    
    <glyph glyph-name="microwave-oven" unicode="&#58943;" d="M206 397.7h-0.2c-27.9 0.6-49.8 22.6-49.8 50s21.9 49.4 49.8 50c28.4-0.6 50.3-22.6 50.3-50s-21.9-49.4-49.8-50h-0.3z m-0.2 80.8c-16.9-0.4-30.5-13.9-30.5-30.7 0-16.7 13.5-30.2 30.7-30.7 17.2 0.5 30.7 13.9 30.7 30.7 0 16.8-13.6 30.3-30.9 30.7zM206 206h-0.2c-27.9 0.6-49.8 22.6-49.8 50s21.9 49.4 49.8 50c28.4-0.7 50.3-22.6 50.3-50s-21.9-49.4-49.8-50h-0.3z m-0.2 80.7c-16.9-0.4-30.5-13.9-30.5-30.7 0-16.7 13.5-30.2 30.7-30.7 17.2 0.5 30.7 13.9 30.7 30.7 0 16.8-13.6 30.3-30.9 30.7zM844.3 163.79999999999995H376.1c-23.1 0-42 18.8-42 42V512.5c0 23.1 18.8 42 42 42h468.2c23.1 0 42-18.8 42-42v-306.7c0-23.1-18.9-42-42-42zM376.1 535.1c-12.5 0-22.6-10.1-22.6-22.6v-306.7c0-12.5 10.1-22.6 22.6-22.6h468.2c12.5 0 22.6 10.1 22.6 22.6V512.5c0 12.5-10.1 22.6-22.6 22.6H376.1zM68 664.3h871.8v-24.2H68zM915.6 49.700000000000045H108.4C83.9 49.700000000000045 64 70 64 94.89999999999998V752.6c0 24.9 19.9 45.2 44.4 45.2h807.2c24.5 0 44.4-20.3 44.4-45.2V95c0-25-19.9-45.3-44.4-45.3zM108.4 773.1c-11.1 0-20.2-9.2-20.2-20.6v-657.6c0-11.3 9-20.6 20.2-20.6h807.2c11.1 0 20.2 9.2 20.2 20.6V752.6c0 11.3-9 20.6-20.2 20.6H108.4zM239-32.200000000000045h-66c-15.6 0-28.3 12.7-28.3 28.3V74h122.5v-78c0.1-15.5-12.6-28.2-28.2-28.2z m-70.1 81.9V-4c0-2.2 1.8-4 4-4h66c2.2 0 4 1.8 4 4v53.7h-74zM851-32.200000000000045h-66c-15.6 0-28.3 12.7-28.3 28.3V74h122.5v-78c0.1-15.5-12.6-28.2-28.2-28.2z m-70.1 81.9V-4c0-2.2 1.8-4 4-4h66c2.2 0 4 1.8 4 4v53.7h-74zM404 384.1v95.4c0 0.4 0.3 0.8 0.8 0.8h22.7c0.4 0 0.8-0.3 0.8-0.8v-95.4c0-0.4-0.3-0.7-0.8-0.7h-22.7c-0.5 0-0.8 0.3-0.8 0.7zM404 238.79999999999995v95.4c0 0.4 0.3 0.8 0.8 0.8h22.7c0.4 0 0.8-0.3 0.8-0.8v-95.4c0-0.4-0.3-0.8-0.8-0.8h-22.7c-0.5 0.1-0.8 0.4-0.8 0.8z"  horiz-adv-x="1024" />

    
    <glyph glyph-name="screen" unicode="&#58944;" d="M822.8-32.200000000000045H201.2c-6.7 0-12.1 5.4-12.1 12.1 0 6.7 5.4 12.1 12.1 12.1h621.5c6.7 0 12.1-5.4 12.1-12.1 0.1-6.7-5.3-12.1-12-12.1zM404 164h24.2v-177.6H404zM596 164h24.2v-177.6H596zM915.6 160.10000000000002H108.4C83.9 160.10000000000002 64 180 64 204.5V753.4c0 24.5 19.9 44.4 44.4 44.4h807.2c24.5 0 44.4-19.9 44.4-44.4v-548.9c0-24.5-19.9-44.4-44.4-44.4zM108.4 773.6c-11.1 0-20.2-9-20.2-20.2v-548.9c0-11.1 9-20.2 20.2-20.2h807.2c11.1 0 20.2 9 20.2 20.2V753.4c0 11.1-9 20.2-20.2 20.2H108.4zM76.1 332.1h871.8v-24.2H76.1zM512.1 256m-24.2 0a24.2 24.2 0 1 1 48.4 0 24.2 24.2 0 1 1-48.4 0Z"  horiz-adv-x="1024" />

    
    <glyph glyph-name="tv" unicode="&#58945;" d="M313.6 589.2h56.5L345 447.8h63.7l24.6 141.4h57.1l8.8 50.6H322.4zM588.5 512.2l-11 127.6h-64l32.1-192h63.8l101 192h-63.8zM832.2 224.10000000000002m-24.2 0a24.2 24.2 0 1 1 48.4 0 24.2 24.2 0 1 1-48.4 0ZM783.9-31H240.1c-5.9 0-10.6 5.4-10.6 12.1 0 6.7 4.7 12.1 10.6 12.1H784c5.9 0 10.6-5.4 10.6-12.1-0.1-6.7-4.8-12.1-10.7-12.1zM915.6 128.20000000000005H108.4c-24.5 0-44.4 20.3-44.4 45.2V752.7c0 24.9 19.9 45.2 44.4 45.2h807.2c24.5 0 44.4-20.3 44.4-45.2v-579.3c0-24.9-19.9-45.2-44.4-45.2z m-807.2 645c-11.1 0-20.2-9.2-20.2-20.5v-579.3c0-11.3 9-20.5 20.2-20.5h807.2c11.1 0 20.2 9.2 20.2 20.5V752.7c0 11.3-9 20.5-20.2 20.5H108.4zM76.1 320h871.8v-24.2H76.1z"  horiz-adv-x="1024" />

    
    <glyph glyph-name="ac-controller" unicode="&#58911;" d="M915.6-64H108.4C83.9-64 64-44.10000000000002 64-19.600000000000023V787.6C64 812.1 83.9 832 108.4 832h807.2c24.5 0 44.4-19.9 44.4-44.4v-807.2c0-24.5-19.9-44.4-44.4-44.4zM108.4 807.8c-11.1 0-20.2-9-20.2-20.2v-807.2c0-11.1 9-20.2 20.2-20.2h807.2c11.1 0 20.2 9 20.2 20.2V787.6c0 11.1-9 20.2-20.2 20.2H108.4zM834.9 275H189.1c-24.5 0-44.4 19.9-44.4 44.4V706.9c0 24.5 19.9 44.4 44.4 44.4h645.8c24.5 0 44.4-19.9 44.4-44.4v-387.5c0-24.5-19.9-44.4-44.4-44.4zM189.1 727.1c-11.1 0-20.2-9-20.2-20.2v-387.5c0-11.1 9-20.2 20.2-20.2h645.8c11.1 0 20.2 9 20.2 20.2V706.9c0 11.1-9 20.2-20.2 20.2H189.1zM832.2 128.20000000000005m-40.4 0a40.4 40.4 0 1 1 80.8 0 40.4 40.4 0 1 1-80.8 0ZM672.1 128.20000000000005m-40.4 0a40.4 40.4 0 1 1 80.8 0 40.4 40.4 0 1 1-80.8 0ZM512.1 128.20000000000005m-40.4 0a40.4 40.4 0 1 1 80.8 0 40.4 40.4 0 1 1-80.8 0ZM445.4 607.3l10.7 10.7-10.6 10.7h-78.7L356.1 618l10.7-10.7zM445.4 523.8h-78.6l-10.7-10.6 10.7-10.7h78.7l10.6 10.7zM445.4 419h-78.6l-10.7-10.7 10.7-10.7h78.7l10.6 10.7zM593 607.3l10.7 10.7-10.7 10.7h-78.6L503.7 618l10.7-10.7zM512 526.3v78.6l-10.7 10.7-10.7-10.7v-78.6l10.7-10.7zM593 523.8h-78.6l-10.7-10.6 10.7-10.7H593l10.7 10.7zM606.1 510.7l-10.6-10.6v-78.7l10.6-10.7 10.7 10.7v78.7zM593 419h-78.6l-10.7-10.7 10.7-10.7H593l10.7 10.7zM447.9 604.9v-78.6l10.7-10.7 10.6 10.7v78.6l-10.6 10.7zM364.4 421.4v78.7l-10.7 10.6-10.7-10.6v-78.7l10.7-10.7zM512 421.4v78.7l-10.7 10.6-10.7-10.6v-78.7l10.7-10.7zM657.8 628.7c5.4-0.3 9.2-3.5 11.3-9.5v-4.1c-1.5-4.8-4.5-7.7-9-8.6h-3.6c-5.7 0.6-8.9 4.4-9.5 11.3 0.3 5.7 3.8 9.4 10.4 10.9h0.4z m-0.5-3.6c-4.2-1.2-6.5-3.6-6.8-7.2 0.3-3.9 2.1-6.5 5.4-7.7l2.7-0.5c4.8 1.5 7.1 4.4 6.8 8.6v0.5c-1.2 3.3-3.2 5.4-5.9 6.3h-2.2z m54.3-7.7c16.3-0.9 26.7-7.7 31.2-20.4l0.5-0.9-8.6-3.6c-3.6 9.7-9.7 14.8-18.1 15.4l-6.8 0.5c-17.2-0.9-26.1-12.4-26.7-34.4 0.9-15.1 7.1-24.7 18.6-29 2.4-1.2 6.3-1.7 11.8-1.4 10.3 1.2 17.9 7.8 23.1 19.9v0.5l9-1.8v-0.5c-6.9-17.2-17.9-26.1-33-26.7h-6.3c-16 2.7-25.8 10.6-29.4 23.5-1.5 4.2-2.3 9.8-2.3 16.7 0.9 17.5 6.9 29.7 18.1 36.7 4.8 3.3 10.6 5.1 17.2 5.4h1.7z"  horiz-adv-x="1024" />

    
    <glyph glyph-name="sweeping-robot" unicode="&#58912;" d="M512 8.600000000000023C305 8.600000000000023 136.6 177 136.6 384S305 759.4 512 759.4 887.4 591 887.4 384 719 8.600000000000023 512 8.600000000000023z m0 726.5c-193.6 0-351.1-157.5-351.1-351.1S318.4 32.89999999999998 512 32.89999999999998 863.1 190.39999999999998 863.1 384 705.6 735.1 512 735.1zM512 486.8c-53.6 0-97.3 43.6-97.3 97.3s43.6 97.3 97.3 97.3 97.3-43.6 97.3-97.3-43.7-97.3-97.3-97.3z m0 181.6c-46.5 0-84.4-37.8-84.4-84.3s37.8-84.3 84.4-84.3 84.4 37.8 84.4 84.3-37.9 84.3-84.4 84.3zM512 588.3m-37.8 0a37.8 37.8 0 1 1 75.6 0 37.8 37.8 0 1 1-75.6 0ZM512 245.10000000000002c-11.9 0-21.6 9.7-21.6 21.6s9.7 21.6 21.6 21.6c11.9 0 21.6-9.7 21.6-21.6s-9.7-21.6-21.6-21.6z m0 30.3c-4.8 0-8.7-3.9-8.7-8.7s3.9-8.7 8.7-8.7 8.7 3.9 8.7 8.7-3.9 8.7-8.7 8.7zM512 177c-11.9 0-21.6 9.7-21.6 21.6s9.7 21.6 21.6 21.6c11.9 0 21.6-9.7 21.6-21.6S523.9 177 512 177z m0 30.3c-4.8 0-8.7-3.9-8.7-8.7s3.9-8.7 8.7-8.7 8.7 3.9 8.7 8.7-3.9 8.7-8.7 8.7zM216.9 592.1h204.3V576H216.9zM602.8 592.1h204.3V576H602.8zM512 135.39999999999998c-32.8 0-59.4 26.7-59.4 59.4v75.7c0 32.8 26.7 59.4 59.4 59.4s59.4-26.7 59.4-59.4v-75.7c0-32.8-26.6-59.4-59.4-59.4z m0 181.6c-25.7 0-46.5-20.9-46.5-46.5v-75.7c0-25.7 20.9-46.5 46.5-46.5 25.7 0 46.5 20.9 46.5 46.5v75.7c0 25.6-20.8 46.5-46.5 46.5zM512-64C265-64 64 137 64 384c0 1.8 0.1 3.6 0.1 5.4l0.3 14.8h72.8c1 19.1 3.4 38 7.2 56.5H70.3l3 14.6C116.1 682 300.6 832 512 832c211.4 0 395.9-150 438.7-356.7l3-14.6h-74.2c3.8-18.5 6.2-37.4 7.3-56.5h72.9l0.3-15c0.1-1.7 0.1-3.4 0.1-5.2C960 137 759-64 512-64zM88.2 380C90.4 148.10000000000002 279.7-39.799999999999955 512-39.799999999999955S933.6 148.10000000000002 935.8 380h-72.6l-0.3 11.8c-0.6 26.6-4.1 52.9-10.4 78l-3.8 15.1h74.9C877.7 672.9 707 807.8 512 807.8c-195 0-365.8-134.9-411.7-322.9h74.9l-3.8-15.1c-6.3-25.2-9.8-51.4-10.4-78l-0.3-11.8H88.2z"  horiz-adv-x="1024" />

    
    </font>
</defs>
</svg>
