<?xml version="1.0" standalone="no"?>
<!DOCTYPE svg PUBLIC "-//W3C//DTD SVG 1.1//EN" "http://www.w3.org/Graphics/SVG/1.1/DTD/svg11.dtd" >
<svg xmlns="http://www.w3.org/2000/svg">
<metadata>Generated by IcoMoon</metadata>
<defs>
<font id="grommet" horiz-adv-x="1024">
<font-face units-per-em="1024" ascent="960" descent="-64" />
<missing-glyph horiz-adv-x="1024" />
<glyph unicode="&#x20;" horiz-adv-x="512" d="" />
<glyph unicode="&#xe907;" glyph-name="adobe-creative-cloud" d="M1024 471.211v-33.707c-0.341-1.835-0.725-3.627-0.939-5.461-1.707-14.635-2.859-29.44-5.291-43.947-8.512-49.759-26.080-94.176-51.044-133.429l0.868 1.461c-37.744-60.722-90.564-108.859-153.33-139.947l-2.19-0.981c-34.863-17.671-75.423-30.181-118.263-35.248l-1.716-0.165c-9.259-1.067-18.517-2.005-27.819-3.029h-359.723c-1.835 0.341-3.627 0.853-5.461 0.981-38.252 2.35-73.823 11.352-106.398 25.864l1.95-0.776c-72.405 31.701-126.379 83.072-161.749 153.771-14.794 28.867-25.331 62.452-29.718 97.943l-0.148 1.47-3.029 25.301v32.725c0.341 1.835 0.853 3.627 0.981 5.461 1.941 33.298 8.989 64.395 20.379 93.308l-0.709-2.044c30.549 78.891 83.883 137.344 159.488 175.317 36.389 18.465 79.062 30.145 124.24 32.231l0.688 0.025c4.842 0.242 10.515 0.379 16.22 0.379 16.898 0 33.514-1.208 49.766-3.542l-1.858 0.219c0.219-0.021 0.474-0.033 0.732-0.033 2.044 0 3.91 0.756 5.336 2.004l-0.009-0.008c29.669 30.446 64.306 55.869 102.634 74.996l2.198 0.993c35.040 17.717 75.799 30.271 118.842 35.374l1.734 0.167c9.984 1.152 19.925 2.091 29.867 3.115h30.72c1.963-0.299 4.011-0.683 5.973-0.896 15.232-1.792 30.507-2.901 45.568-5.419 49.428-8.522 93.545-25.931 132.598-50.625l-1.483 0.876c61.026-37.736 109.406-90.676 140.629-153.632l0.981-2.187c18.688-37.675 30.677-78.293 35.413-120.064 1.109-9.643 2.048-19.2 3.072-28.843zM451.413 689.365c0.64-0.853 0.811-1.195 1.067-1.323 21.035-10.368 41.173-22.571 60.16-36.395 1.195-0.853 4.181-0.512 5.632 0.427 52.139 33.024 108.672 44.416 169.387 33.664 59.52-10.539 107.947-40.277 144.939-87.765 41.899-53.76 57.899-114.517 46.293-182.187-7.723-45.269-25.899-85.931-56.747-119.979-56.32-62.123-126.805-87.765-209.792-76.928-52.053 6.65-97.586 30.496-131.616 65.566l-0.054 0.056c-46.848 47.36-94.037 94.336-141.013 141.568-6.272 6.272-13.227 11.307-22.229 12.416-1.45 0.21-3.123 0.331-4.825 0.331-14.093 0-26.262-8.243-31.947-20.17l-0.092-0.214c-6.059-12.629-5.291-26.88 7.893-39.851 52.352-51.413 104.277-103.296 156.587-154.752 8.96-8.875 18.56-17.067 28.757-24.448 38.229-27.733 81.323-43.093 128-49.28 12.814-1.888 27.606-2.967 42.649-2.967 23.518 0 46.42 2.635 68.427 7.627l-2.063-0.393c69.274 15.314 128.099 52.673 170.239 104.207l0.428 0.539c35.309 42.081 59.413 94.673 67.077 152.455l0.166 1.529c1.795 12.365 2.82 26.641 2.82 41.157 0 20.459-2.036 40.443-5.917 59.759l0.324-1.93c-10.411 53.376-32.981 101.12-69.12 141.739-69.035 77.483-155.861 112.085-259.157 104.363-41.759-3.465-80.064-15.333-114.194-33.905l1.511 0.753c-20.356-10.681-37.907-22.525-54.004-36.043l0.457 0.374zM426.197 148.48l-4.267 3.968c-21.376 20.224-42.923 40.32-64.085 60.8-3.193 3.552-7.802 5.775-12.931 5.775-0.254 0-0.507-0.005-0.758-0.016l0.036 0.001c-21.419-0.512-42.88-0.64-64 4.139-105.003 23.765-165.973 137.941-127.275 238.379 30.507 79.232 115.029 127.488 198.357 112.597 37.333-6.656 70.144-22.485 97.067-50.219 32.811-33.877 66.56-66.816 99.755-100.352 7.552-7.637 16.213-11.093 26.709-9.6 13.483 1.92 24.277 8.363 29.141 21.632 1.565 3.641 2.475 7.88 2.475 12.331 0 9.069-3.777 17.255-9.845 23.072l-0.011 0.011c-34.816 35.243-68.821 71.381-105.045 105.173-70.272 65.536-153.088 84.992-244.736 57.173-123.221-37.461-195.371-164.693-167.211-290.304 25.336-112.245 124.2-194.816 242.35-194.816 0.164 0 0.327 0 0.491 0h98.066c1.621 0 3.243 0.128 5.717 0.256z" />
<glyph unicode="&#xe90e;" glyph-name="amazon" d="M511.678-61.429c-134.628 0.906-254.156 45.26-360.978 126.069-38.129 28.85-72.771 61.493-104.379 97.356-1.123 1.28-3.053 2.502-3.182 3.881-0.492 4.945-0.364 9.939-0.473 14.913 4.275-0.689 9.308-0.148 12.706-2.256 28.574-17.799 56.065-37.459 85.349-53.958 84.867-47.801 175.643-78.779 272.113-93.515 50.343-7.683 100.912-10.214 151.462-7.279 96.588 5.595 188.901 29.628 276.752 70.358 13.878 6.432 27.481 13.465 41.113 20.409 6.599 3.369 13.11 4.748 18.715-1.162 5.92-6.235 5.664-13.76 1.537-20.714-2.364-3.999-5.959-7.427-9.485-10.569-78.553-69.698-170.432-112.495-272.91-132.402-35.479-6.895-71.835-9.259-107.797-13.701-0.177 0.857-0.364 1.714-0.542 2.571zM890.967 155.927c-19.444-1.862-41.015-3.979-62.596-5.949-4.728-0.433-9.535-0.709-14.263-0.424-5.437 0.325-6.304 3.674-3.329 7.634 1.773 2.364 4.432 4.176 6.944 5.871 22.832 15.326 48.678 22.034 75.46 25.58 25.423 3.369 50.816 2.581 75.667-4.078 16.774-4.492 20.429-6.511 19.178-26.033-3.31-51.446-19.877-98.223-57.179-135.8-1.911-1.931-3.713-4.413-6.077-5.348-3.152-1.241-6.806-1.221-10.244-1.743 0.079 3.132-0.571 6.511 0.364 9.357 8.894 27.058 18.183 53.987 27.028 81.055 1.773 5.427 2.443 11.268 3.122 16.981 2.167 18.252-5.132 27.432-24.506 30.269-9.042 1.32-18.222 1.655-29.569 2.63zM597.186 558.076c-36.642 0.207-71.678-1.379-105.197-12.618-16.558-5.555-33.342-12.598-47.595-22.477-39.37-27.274-49.614-67.875-46.373-113.106 1.714-23.955 8.914-46.127 26.585-63.502 25.107-24.684 67.373-27.924 101.306-7.87 29.579 17.484 47.21 44.462 58.656 75.903 16.863 46.304 11.554 94.549 12.618 143.67zM624.175 287.037c-13.169-11.987-25.334-23.285-37.735-34.317-47.683-42.404-104.025-61.345-167.271-62.616-34.337-0.689-68.053 1.901-100.193 14.598-57.247 22.625-93.751 64.458-108.555 123.823-18.38 73.726-12.174 144.714 31.451 209.162 32.248 47.634 78.888 75.952 132.737 93.288 46.206 14.873 94.037 21.394 142.055 26.772 26.348 2.955 52.726 5.585 80.365 8.491-0.827 32.997 3.861 66.103-7.732 98.006-10.273 28.259-31.973 42.788-60.33 49.289-42.936 9.84-91.604-6.176-114.682-40.030-7.831-11.495-12.618-25.491-16.824-38.956-5.93-18.971-14.657-25.147-34.356-22.802-38.503 4.56-77.095 8.343-115.598 12.844-19.099 2.246-26.673 13.12-22.95 31.677 16.932 84.453 65.846 143.473 145.453 174.54 93.958 36.661 190.004 39.508 285.223 4.492 78.907-29.018 122.247-86.846 128.019-171.24 1.94-28.486 2.216-57.119 2.334-85.694 0.305-73.904 0.66-147.807-0.118-221.701-0.433-41.153 10.983-77.676 36.001-110.171 6.008-7.821 12.096-15.661 17.188-24.073 8.441-13.947 6.186-24.526-6.018-35.056-31.441-27.127-62.822-54.332-94.184-81.557-17.267-14.982-29.234-14.775-46.6-0.148-22.881 19.276-41.675 41.96-57.898 66.94-2.955 4.551-6.077 8.993-9.781 14.44z" />
<glyph unicode="&#xe90f;" glyph-name="amex" d="M184.043 449.488l-34.962 85.195-34.762-85.195h69.725zM519.382 357.273l-0.193 167.373-74.069-167.373h-44.85l-74.263 167.521v-167.521h-103.894l-19.628 47.667h-106.356l-19.827-47.667h-55.479l91.473 213.705h75.893l86.877-202.335v202.335h83.371l66.85-144.973 61.41 144.973h85.046v-213.705h-52.36zM653.038 401.002v42.53h112.145v43.613h-112.145v38.862h128.066l55.873-62.293-58.348-62.712h-125.591zM999.13 356.455h-66.375l-62.899 70.762-65.367-70.762h-202.335v213.757h205.448l62.847-70.066 64.974 70.066h66.731l-99.27-106.878 96.245-106.878z" />
<glyph unicode="&#xe912;" glyph-name="android" d="M242.57 622.34h542.635v-442.189c0-26.269-21.298-47.567-47.535-47.567h-54.352v-134.669c0-34.199-27.277-61.915-60.949-61.915-33.758 0-60.995 27.716-60.995 61.915v134.669h-94.927v-134.669c0-34.199-27.331-61.915-61.001-61.915-33.664 0-60.993 27.716-60.993 61.915v134.669h-54.304c-26.243 0-47.581 21.298-47.581 47.567v442.189h0.002zM136.233 625.949c-34.014 0-61.566-27.981-61.566-62.522v-244.351c0-34.501 27.552-62.53 61.566-62.53 34.020 0 61.566 28.029 61.566 62.53v244.351c0 34.541-27.546 62.522-61.566 62.522v0zM785.208 666.899h-542.637c6.697 77.307 56.845 143.833 129.036 182.352l-51.593 75.756c-6.958 10.216-4.332 24.155 5.904 31.111 10.224 6.956 24.135 4.31 31.127-5.898l56.232-82.625c31.177 10.781 65.019 16.971 100.612 16.971 35.636 0 69.48-6.19 100.655-16.985l56.232 82.609c6.905 10.236 20.861 12.881 31.085 5.926 10.236-6.956 12.861-20.895 5.904-31.111l-51.551-75.756c72.189-38.495 122.303-105.021 128.996-182.35v0zM429.453 771.942c0 16.578-13.424 30.025-29.997 30.025-16.614 0-30.039-13.446-30.039-30.025 0-16.57 13.468-30.011 30.039-30.011s29.997 13.44 29.997 30.011v0zM662.162 771.942c0 16.578-13.47 30.025-30.039 30.025-16.614 0-29.999-13.446-29.999-30.025 0-16.57 13.384-30.011 29.999-30.011 16.57 0 30.039 13.44 30.039 30.011v0zM891.586 626.035c-33.978 0-61.608-28.023-61.608-62.566v-244.437c0-34.543 27.63-62.574 61.608-62.574 34.022 0 61.522 28.029 61.522 62.574v244.437c0.002 34.543-27.5 62.566-61.522 62.566v0z" />
<glyph unicode="&#xe914;" glyph-name="apple" d="M652.83 796.501c35.755 43.264 59.819 103.552 53.248 163.499-51.541-2.091-113.877-34.347-150.827-77.611-33.152-38.315-62.165-99.627-54.315-158.379 57.429-4.48 116.139 29.184 151.893 72.491zM781.683 416c1.451-154.965 135.936-206.549 137.429-207.232-1.109-3.627-21.461-73.472-70.869-145.621-42.667-62.379-86.955-124.544-156.757-125.824-68.565-1.237-90.581 40.661-169.003 40.661-78.336 0-102.827-39.381-167.765-41.899-67.328-2.56-118.613 67.456-161.664 129.579-87.936 127.147-155.136 359.253-64.896 515.925 44.843 77.824 124.928 127.104 211.883 128.341 66.133 1.28 128.555-44.501 169.003-44.501 40.405 0 116.267 55.040 196.011 46.976 33.408-1.408 127.104-13.483 187.307-101.589-4.864-2.987-111.829-65.28-110.677-194.816z" />
<glyph unicode="&#xe915;" glyph-name="apple-app-store" d="M128 234.667c-23.564 0-42.667 19.103-42.667 42.667s19.103 42.667 42.667 42.667h448c42.667 0 85.333-85.333 64-85.333h-512zM725.333 234.667c-23.564 0-42.667 19.103-42.667 42.667s19.103 42.667 42.667 42.667h170.667c23.564 0 42.667-19.103 42.667-42.667s-19.103-42.667-42.667-42.667h-170.667zM539.024 810.622c11.758 20.421 37.844 27.444 58.265 15.687s27.444-37.844 15.687-58.265l-294.702-511.852c-11.758-20.421-37.844-27.444-58.265-15.687s-27.444 37.844-15.687 58.265l294.702 511.852zM170.667 170.667c21.333 42.667 149.333 85.333 106.667 11.911-7.586-13.054-30.816-52.565-69.691-118.533-11.758-20.421-37.844-27.444-58.265-15.687s-27.444 37.844-15.687 58.265l36.976 64.044zM389.691 768.044c-11.758 20.421-4.734 46.507 15.687 58.265s46.507 4.734 58.265-15.687l74.404-129.227c11.758-20.421 4.734-46.507-15.687-58.265s-46.507-4.734-58.265 15.687l-74.404 129.227zM554.667 469.333c-38.32 64 0 192 30.564 128.175l283.745-490.886c11.758-20.421 4.734-46.507-15.687-58.265s-46.507-4.734-58.265 15.687l-240.357 405.289z" />
<glyph unicode="&#xe916;" glyph-name="apple-music" d="M938.325-13.483c32.768 25.259 55.637 60.757 65.536 86.016 19.797 50.859 20.139 108.544 20.139 145.067v460.8c0 36.181 0 94.208-20.139 145.067-9.899 25.259-33.109 61.099-65.536 86.016-20.383 16.347-44.383 29.194-70.513 37.152l-1.508 0.395c-33.109 9.557-73.387 12.971-123.904 12.971h-460.8c-50.517 0-90.795-3.413-123.904-12.971-27.612-8.512-51.588-21.34-72.476-37.895l0.455 0.348c-32.768-25.259-55.637-60.757-65.536-86.016-19.797-50.859-20.139-108.544-20.139-145.067v-460.8c0-36.523 0.341-94.208 20.139-145.067 9.899-25.259 33.109-61.099 65.536-86.016 18.773-14.677 41.301-28.331 72.021-37.547 33.109-9.557 73.387-12.971 123.904-12.971h460.8c50.517 0 91.136 3.072 123.904 12.971 27.612 8.512 51.588 21.34 72.476 37.895l-0.455-0.348zM694.869 799.317c2.645 0.555 24.576 4.437 27.051 4.693 16.427 1.408 25.6-9.387 25.6-26.88v-481.664c0-12.928-0.128-24.619-2.859-37.589-2.725-13.304-7.893-25.066-15.051-35.337l0.203 0.308c-7.406-10.534-16.733-19.193-27.538-25.631l-0.409-0.225c-10.222-5.966-22.119-10.465-34.769-12.822l-0.687-0.106c-23.552-4.693-39.68-5.803-54.784-2.773-14.379 2.935-26.891 9.551-36.915 18.82l0.051-0.047c-14.026 12.783-23.476 30.373-25.736 50.148l-0.034 0.369c-0.256 2.408-0.402 5.202-0.402 8.030 0 21.512 8.442 41.053 22.193 55.49l-0.031-0.033c8.405 8.832 18.987 15.787 33.109 21.291 14.805 5.717 31.104 9.173 56.192 14.208l19.797 4.011c8.747 1.749 16.171 3.968 22.187 11.307 6.059 7.381 6.144 16.384 6.144 25.301v224.896c0 17.237-7.765 21.931-24.149 18.773-11.776-2.304-264.107-53.205-264.107-53.205-14.208-3.413-19.2-8.107-19.2-25.728v-329.472c0-12.928-0.64-24.661-3.413-37.632-2.732-13.288-7.899-25.035-15.051-35.294l0.203 0.308c-7.396-10.53-16.708-19.188-27.497-25.631l-0.407-0.225c-10.217-6.017-22.109-10.571-34.759-12.988l-0.697-0.111c-23.552-4.779-39.68-5.803-54.784-2.773-14.389 2.975-26.9 9.634-36.911 18.945l0.047-0.043c-13.854 12.82-23.115 30.427-25.145 50.178l-0.028 0.339c-0.308 2.634-0.484 5.687-0.484 8.78 0 21.184 8.238 40.443 21.685 54.75l-0.039-0.042c8.405 8.875 18.987 15.829 33.109 21.333 14.805 5.717 31.104 9.131 56.192 14.208l19.797 3.968c8.704 1.792 16.171 4.011 22.187 11.349 5.973 7.339 6.699 15.957 6.699 24.832v379.861c0 5.12 0.427 8.576 0.683 10.283 0.906 7.893 4.667 14.769 10.208 19.684l0.032 0.028c5.253 4.205 11.646 7.209 18.641 8.494l0.26 0.040h0.128l303.488 61.227z" />
<glyph unicode="&#xe917;" glyph-name="apple-podcasts" d="M938.325-13.483c32.768 25.259 55.637 60.757 65.536 86.016 19.797 50.859 20.139 108.544 20.139 145.067v460.8c0 36.181 0 94.208-20.139 145.067-9.899 25.259-33.109 61.099-65.536 86.016-20.383 16.347-44.383 29.194-70.513 37.152l-1.508 0.395c-33.109 9.557-73.387 12.971-123.904 12.971h-460.8c-50.517 0-90.795-3.413-123.904-12.971-27.612-8.512-51.588-21.34-72.476-37.895l0.455 0.348c-32.768-25.259-55.637-60.757-65.536-86.016-19.797-50.859-20.139-108.544-20.139-145.067v-460.8c0-36.523 0.341-94.208 20.139-145.067 9.899-25.259 33.109-61.099 65.536-86.016 18.773-14.677 41.301-28.331 72.021-37.547 33.109-9.557 73.387-12.971 123.904-12.971h460.8c50.517 0 91.136 3.072 123.904 12.971 27.612 8.512 51.588 21.34 72.476 37.895l-0.455-0.348zM151.893 491.008c2.731 195.925 163.157 354.987 359.083 355.669 198.997 0.341 361.131-161.451 361.813-360.107 0-157.013-100.693-290.816-240.981-339.968-3.413-1.365-7.168 1.365-6.485 5.12l5.12 36.864c0.334 4.479 3.164 8.224 7.091 9.87l0.077 0.028c110.933 48.811 188.757 159.403 188.757 288.085 0 174.080-142.336 315.392-316.757 314.027-170.325-1.365-309.589-140.288-311.296-310.955-0.009-0.907-0.015-1.979-0.015-3.052 0-128.171 76.735-238.419 186.77-287.311l2.002-0.794c3.769-1.969 6.458-5.56 7.157-9.82l0.011-0.078c0.896-8.192 2.133-16.384 3.328-24.576l1.792-12.288c0.341-3.413-3.072-6.485-6.485-5.12-141.653 49.835-243.029 185.685-240.981 344.405zM595.968 515.925c0-46.421-37.547-83.968-83.968-83.968-0.013 0-0.028 0-0.043 0-46.351 0-83.925 37.575-83.925 83.925 0 0.015 0 0.030 0 0.045v-0.002c0 46.421 37.547 83.968 83.968 83.968s83.968-37.888 83.968-83.968zM599.723 341.845c2.731-23.893 1.365-44.373-1.707-77.483-2.731-31.403-7.851-73.045-14.336-115.712-4.779-30.379-8.533-46.763-11.947-58.368-5.461-18.773-26.624-35.499-59.733-35.499s-53.931 16.384-59.733 35.499c-3.413 11.605-7.168 27.989-11.947 58.368-6.485 42.325-11.605 84.309-14.336 115.712v0.384c-2.731 32.853-4.437 53.291-1.707 77.099 1.365 12.288 5.803 20.821 13.653 29.355 15.36 16.384 42.325 26.624 74.069 26.624s58.709-10.581 74.069-26.624l0.009-0.009c7.72-7.531 12.779-17.776 13.644-29.346zM502.784 727.211c137.216 5.461 250.88-104.789 250.539-240.64v-0.013c-0.080-82.48-41.501-155.28-105.472-199.326-3.413-2.389-7.851 0.341-7.509 4.096 0.683 14.677 1.024 27.648 0.341 40.96v-0.005c0 0.033 0 0.065 0 0.098 0 4.498 1.827 8.569 4.779 11.512 37.888 35.84 61.781 86.357 61.781 142.336v0.006c-0.062 107.73-87.413 195.043-195.157 195.043-2.671 0-5.329-0.054-7.595-0.148l-0.404-0.014c-102.097-4.394-183.912-87.042-186.988-189.767l0.005 0.255c-0.045-1.723-0.068-3.451-0.068-5.184 0-56.182 23.74-106.819 61.844-142.527l0.017-0.015c2.942-2.55 4.803-6.315 4.803-10.514 0-0.379-0.015-0.754-0.042-1.076l0.038 0.863c-0.342-6.206-0.516-12.458-0.516-18.75 0-8.239 0.297-16.409 0.819-23.414 0-3.755-4.437-6.144-7.509-4.096l-0.816 0.53c-63.22 43.456-104.675 116.287-104.675 198.8 0 1.083 0.007 2.165 0.020 3.080 1.707 127.659 104.107 233.131 231.765 237.909z" />
<glyph unicode="&#xe91b;" glyph-name="archlinux" d="M511.808 960c-45.578-111.743-73.068-184.837-123.812-293.259 31.113-32.979 69.303-71.386 131.322-114.762-66.677 27.437-112.159 54.983-146.148 83.568-64.943-135.514-166.691-328.548-373.169-699.547 162.285 93.69 288.086 151.451 405.326 173.491-5.034 21.653-7.897 45.074-7.702 69.512l0.193 5.199c2.575 103.972 56.661 183.926 120.731 178.497s113.871-94.166 111.296-198.138c-0.484-19.564-2.691-38.385-6.547-55.841 115.967-22.685 240.422-80.298 400.512-172.721-31.567 58.116-59.743 110.503-86.649 160.397-42.382 32.849-86.59 75.603-176.764 121.886 61.981-16.105 106.358-34.686 140.949-55.455-273.569 509.339-295.722 577.019-389.536 797.172v0z" />
<glyph unicode="&#xe91d;" glyph-name="aruba" d="M516.691 221.8c-131.156 0-238.996 104.925-238.996 233.167s107.84 233.167 238.996 233.167c131.156 0 238.996-104.925 238.996-233.167s-107.84-233.167-238.996-233.167v0zM516.691 874.667c-238.996 0-431.358-189.448-431.358-419.7 0-233.167 192.362-419.7 431.358-419.7 99.096 0 189.448 32.060 262.312 87.437 43.719-72.865 169.046-87.437 169.046-87.437v419.7c0 230.252-192.362 419.7-431.358 419.7v0z" />
<glyph unicode="&#xe91f;" glyph-name="ascending" d="M515.452 649.113l15.087 15.085 194.795-194.796-30.17-30.17-143.292 143.293v-347.854h-42.667v347.854l-143.294-143.293-30.17 30.17 179.71 179.712z" />
<glyph unicode="&#xe92b;" glyph-name="bitcoin" d="M1008.675 324.067c-68.391-274.317-346.229-441.263-620.578-372.856-274.237 68.391-441.183 346.245-372.76 620.546 68.359 274.349 346.197 441.311 620.466 372.92 274.333-68.391 441.263-346.277 372.872-620.61v0zM737.766 520.888c10.193 68.135-41.684 104.763-112.62 129.198l23.010 92.298-56.182 14.001-22.402-89.866c-14.77 3.68-29.939 7.153-45.013 10.593l22.562 90.458-56.15 14.001-23.026-92.266c-12.225 2.784-24.227 5.537-35.876 8.433l0.064 0.288-77.48 19.346-14.946-60.006c0 0 41.684-9.553 40.804-10.145 22.754-5.681 26.867-20.738 26.179-32.675l-26.211-105.147c1.568-0.4 3.6-0.976 5.841-1.872-1.872 0.464-3.872 0.976-5.937 1.472l-36.74-147.296c-2.784-6.913-9.841-17.282-25.747-13.345 0.56-0.816-40.836 10.193-40.836 10.193l-27.891-64.311 73.112-18.226c13.601-3.408 26.931-6.977 40.052-10.337l-23.25-93.354 56.118-14.001 23.026 92.362c15.33-4.16 30.211-8.001 44.773-11.617l-22.946-91.93 56.182-14.001 23.25 93.178c95.802-18.13 167.842-10.817 198.165 75.832 24.435 69.767-1.216 110.012-51.621 136.255 36.708 8.465 64.359 32.611 71.736 82.489v0zM609.4 340.885c-17.362-69.767-134.83-32.051-172.914-22.594l30.851 123.677c38.084-9.505 160.209-28.323 142.063-101.083v0zM626.778 521.896c-15.842-63.463-113.612-31.219-145.327-23.314l27.971 112.172c31.715-7.905 133.854-22.658 117.356-88.857v0z" />
<glyph unicode="&#xe92e;" glyph-name="block-quote" d="M33.28 580.693c0 130.987 65.28 183.467 183.467 185.173l12.8-61.867c-68.267-7.253-101.547-42.667-97.28-98.56h61.44v-157.44h-160.427zM285.013 580.693c0 130.987 65.28 183.467 183.467 185.173l12.8-61.867c-68.267-7.253-101.973-42.667-97.28-98.56h61.44v-157.44h-160.427zM722.773 315.307c0-130.987-65.28-183.467-183.467-185.173l-12.373 61.867c68.267 6.827 101.973 42.667 97.28 98.133h-61.867v157.867h160.427zM974.507 315.307c0-130.987-65.28-183.467-183.467-185.173l-12.8 61.867c68.267 6.827 101.973 42.667 97.28 98.133h-61.44v157.867h160.427z" />
<glyph unicode="&#xe931;" glyph-name="bold" d="M597.333 466.347c50.264-8.78 94.975-27.48 133.852-54.082l-1.159 0.749c33.401-26.163 54.665-66.497 54.665-111.798 0-1.346-0.019-2.688-0.056-4.026l0.004 0.197c0.013-0.731 0.020-1.594 0.020-2.459 0-49.017-23.089-92.642-58.984-120.591l-0.342-0.257c-53.588-37.539-120.142-59.986-191.939-59.986-7.527 0-14.997 0.247-22.402 0.733l1.007-0.053h-338.347v17.92c3.267-0.25 7.077-0.392 10.919-0.392 18.424 0 36.084 3.271 52.431 9.264l-1.057-0.339c9.973 4.775 17.918 12.445 22.909 21.914l0.131 0.273c4.409 15.773 6.943 33.887 6.943 52.592 0 5.216-0.197 10.386-0.584 15.502l0.041-0.681v430.507c0.361 4.563 0.567 9.881 0.567 15.247 0 18.855-2.543 37.117-7.304 54.46l0.337-1.44c-5.015 9.82-12.994 17.523-22.743 22.063l-0.297 0.124c-15.477 5.623-33.342 8.874-51.966 8.874-3.634 0-7.239-0.124-10.811-0.367l0.483 0.026v17.92h317.867c7.398 0.433 16.049 0.68 24.759 0.68 48.765 0 95.723-7.74 139.712-22.058l-3.19 0.898c30.83-12.949 56.197-33.787 74.299-60.023l0.368-0.563c16.89-23.776 27.082-53.343 27.306-85.278v-0.055c0-0.073 0-0.158 0-0.244 0-33.106-13.183-63.132-34.587-85.116l0.026 0.027c-33.298-30.095-75.085-51.4-121.348-59.926l-1.532-0.234zM419.413 441.6v-237.227c-0.076-1.072-0.119-2.324-0.119-3.585 0-13.889 5.225-26.557 13.817-36.146l-0.045 0.051c9.474-8.308 21.969-13.377 35.648-13.377 1.419 0 2.825 0.055 4.217 0.162l-0.185-0.011c0.363-0.003 0.793-0.005 1.223-0.005 25.923 0 50.333 6.476 71.702 17.898l-0.818-0.399c22.431 11.037 40.419 28.201 52.17 49.313l0.31 0.607c11.033 20.693 17.513 45.256 17.513 71.332 0 0.872-0.007 1.743-0.022 2.612l0.002-0.131c0.043 1.403 0.068 3.054 0.068 4.71 0 29.66-7.943 57.465-21.819 81.403l0.417-0.78c-13.276 23.481-33.814 41.537-58.522 51.352l-0.785 0.275c-26.918 8.154-57.854 12.848-89.887 12.848-8.458 0-16.839-0.327-25.132-0.97l1.099 0.068zM419.413 479.573c4.043-0.231 8.772-0.363 13.532-0.363 31.929 0 62.474 5.924 90.596 16.733l-1.729-0.584c21.048 9.303 38.297 23.947 50.507 42.242l0.267 0.425c11.080 19.188 17.617 42.204 17.617 66.747 0 2.035-0.045 4.060-0.134 6.073l0.010-0.287c0.066 1.576 0.103 3.426 0.103 5.284 0 24.566-6.529 47.607-17.946 67.483l0.35-0.66c-11.893 18.795-28.773 33.479-48.79 42.387l-0.703 0.279c-25.845 9.267-55.664 14.623-86.734 14.623-5.962 0-11.878-0.197-17.742-0.586l0.796 0.042z" />
<glyph unicode="&#xe944;" glyph-name="caret-down-fill" d="M768 576h-512l256-256 256 256z" />
<glyph unicode="&#xe945;" glyph-name="caret-left-fill" d="M640 192v512l-256-256z" />
<glyph unicode="&#xe948;" glyph-name="caret-right-fill" d="M384 704v-512l256 256z" />
<glyph unicode="&#xe94a;" glyph-name="caret-up-fill" d="M256 320h512l-256 256-256-256z" />
<glyph unicode="&#xe94e;" glyph-name="centos" d="M220.202 693.303l-81.589-81.607v210.609h210.557l-89.194-89.21 198.882-198.937v-31.502h-35.429l-196.989 197.033-6.238-6.386zM458.86 559.277v263.028h-84.571l-89.194-89.212 173.765-173.815zM226.444 674.43l-87.832-87.86v-83.916h259.563l-171.731 171.776zM566.248 560.504l172.545 172.591-90.413 90.437h-82.132v-263.028zM764.040 733.095l-6.382-6.248-191.412-191.6v-32.59h33.529l197.257 197.305 6.376-6.248 83.629-83.643v213.459h-213.545l84.164-84.19 6.382-6.244zM476.647 840.226v-298.737l35.295-35.303 36.517 36.529v298.605h82.132l-118.65 118.68-119.74-119.774h84.445zM625.025 502.655h262.018v82.152l-90.006 90.028-172.012-172.18zM453.295 447.521l-37.197 37.209h-295.271v84.052l-120.828-120.848 120.826-120.862v86.363h298.391l34.079 34.087zM566.248 333.186v-258.401h83.758l87.29 87.313-171.048 171.088zM226.855 221.023l174.579 174.631h-262.821v-86.357l88.242-88.274zM797.037 221.023l90.006 90.024v84.607h-264.459l174.453-174.631zM904.957 328.978l118.918 118.954-118.918 118.952v-82.156h-297.848l-36.796-36.796 34.487-34.499h300.158v-84.455h-0.002zM797.037 195.91l-6.248 6.232-193.452 193.51h-31.089v-37.347l196.159-196.209-6.24-6.382-80.916-80.932h211.79v211.020l-83.629-83.657-6.374-6.234zM548.459 56.986v293.998l-37.197 37.195-34.079-34.071v-297.122h-87.014l121.093-120.986 120.96 120.986h-83.764zM259.978 162.098l199.426 199.476v34.081h-32.85l-199.698-199.742-6.248 6.232-81.994 82.024v-209.381h208.519l-80.91 80.932-6.244 6.378zM459.403 336.312l-174.308-174.214 87.286-87.313h87.022v261.527z" />
<glyph unicode="&#xe959;" d="M510.861 259.65c-101.504 0-184.084 82.587-184.084 184.084 0 101.514 82.579 184.094 184.084 184.094s184.092-82.579 184.092-184.094c0.002-101.496-82.585-184.084-184.092-184.084v0z" />
<glyph unicode="&#xe95a;" d="M588.416 226.94c-25.76-9.372-52.739-14.106-80.391-14.106-54.256 0-107.227 19.049-149.143 53.627-34.004 28.057-59.348 64.981-73.315 106.871l-0.074 0.248-202.872 351.388c-72.882-112.095-98.743-245.754-72.8-377.207 26.424-133.875 103.388-249.439 216.727-325.426 59.043-39.577 124.453-65.975 194.46-78.489l167.409 283.093z" />
<glyph unicode="&#xe95b;" d="M971.090 673.849c-126.701 254.926-436.078 358.871-690.997 232.169-65.977-32.792-123.95-79.287-170.25-136.148l171.377-296.844c11.122 86.22 70.802 162.439 159.187 190.24 21.324 6.701 43.509 10.268 65.851 10.583h464.834z" />
<glyph unicode="&#xe95c;" d="M508.863-64c128.425 0 251.337 48.162 346.042 135.601 95.202 87.888 153.017 207.489 162.794 336.762 5.591 74.037-5.383 149.841-31.748 219.465h-335.195c56.396-44.643 89.487-112.866 89.156-185.162-0.24-52.052-18.087-103.206-50.424-144.276l-213.675-361.328c11.005-0.705 22.093-1.062 33.033-1.062h0.018z" />
<glyph unicode="&#xe965;" glyph-name="clock" d="M554.667 661.333c0 23.564-19.103 42.667-42.667 42.667s-42.667-19.103-42.667-42.667v0-213.333c0-13.911 6.657-26.267 16.959-34.056l0.107-0.078 170.667-128c7.042-5.327 15.947-8.533 25.6-8.533 23.564 0 42.667 19.103 42.667 42.667 0 13.911-6.657 26.267-16.959 34.056l-0.107 0.078-153.6 115.2v192zM512 917.333c-259.2 0-469.333-210.133-469.333-469.333s210.133-469.333 469.333-469.333 469.333 210.133 469.333 469.333-210.133 469.333-469.333 469.333zM128 448c0 212.077 171.923 384 384 384s384-171.923 384-384v0c0-212.077-171.923-384-384-384s-384 171.923-384 384v0z" />
<glyph unicode="&#xe96c;" glyph-name="cloudlinux" d="M600.253 712.945c2.076-1.929 4.033-3.931 6.036-5.911 13.38-13.796 25.981-28.78 37.592-45.005 0.017-0.017 0.040-0.051 0.057-0.068 11.315-16.259 21.709-33.769 31.727-52.634 1.951 63.812-10.371 119.91-38.975 172.185-13.13 24.047-26.402 48.708-48.674 65.394-31.937 23.962-68.067 40.26-106.746 50.529-17.277 4.574-34.736 7.873-52.992 9.785-133.171 18.278-267.412-48.145-338.978-180.907 8.021-2.122 11.44 4.739 16.031 8.465 150.613 122.499 358.661 110 492.344-19.28 0.876-0.836 1.678-1.712 2.577-2.554v0zM449.725 247.942c-24.565 14.273-46.911 31.539-69.905 50.557 23.245-66.514 112.526-146.449 188.626-167.236-3.106 2.537-5.996 5.416-9.353 7.566-38.764 24.957-70.599 57.082-97.707 94.134-3.766 5.131-6.582 12.032-11.662 14.979v0zM1006.644 550.476c0.614 2.731 0.762 5.211-2.907 5.791-0.171-1.951-0.387-3.92-0.558-5.865-0.393-4.654-0.779-9.296-1.183-13.943-20.685-230.451-240.060-384.17-463.65-324.858-7.39 1.968-14.757 4.107-22.124 6.155 49.112-55.188 109.585-88.337 181.089-101.82 24.001-4.545 47.263-3.868 70.906 2.588 88.491 24.166 158.105 74.587 205.3 152.838 52.69 87.376 64.836 181.020 33.126 279.114v0zM617.331 84.028c-120.354 21.948-207.166 91.671-266.638 197.854-2.947-67.738 13.534-129.707 49.51-186.317 10.906-17.169 21.208-35.51 38.707-46.893 114.29-74.411 233.244-82.011 354.952-20.651 63.624 32.051 110.512 82.25 141.841 146.745-92.416-79.002-198.144-112.651-318.373-90.738v0zM416.673 938.595c244.52-21.692 396.396-244.093 328.129-480.466-0.791-2.725-2.64-5.433 1.98-7.191 55.836 54.744 90.522 120.252 100.597 198.417 1.729 13.494 1.331 26.63-1.729 39.902-23.905 103.913-82.745 181.999-176.742 231.407-82.005 43.088-168.584 51.166-257.604 22.317-2.782 0.495-5.404 0.7-5.86-3.152 2.020-0.182 4.033-0.381 6.042-0.563 1.724-0.239 3.453-0.523 5.188-0.671v0zM714.025 459.636c-0.017 0.552-0.057 1.081-0.080 1.616-0.023 0.245-0.063 0.472-0.074 0.705-0.108-0.222-0.193-0.455-0.29-0.671 0.148-0.563 0.302-1.092 0.444-1.65v0zM876.835 551.927c-21.953-120.252-91.881-206.859-202.553-266.803 67.282-1.604 125.559 12.026 179.314 43.304 21.663 12.607 44.26 24.877 58.96 45.909 118.249 168.897 57.873 405.879-127.556 497.408 80.020-92.524 113.943-198.861 91.836-319.818v0zM830.175 500.892c-2.998-0.722-5.251-2.31-6.639-4.46-27.278-42.246-61.889-77.198-103.805-104.966-2.844-1.889-5.82-4.306-7.413-7.202-13.443-24.627-31.204-46.182-47.844-68.631 79.65 39.947 134.992 101.547 165.7 185.259v0zM698.011 718.207c-4.978-4.198-1.735-7.634-1.007-10.559 10.041-40.073 14.302-81.215 6.531-121.338-8.368-43.258 6.901-82.972 10.337-124.353 10.542 23.427 14.017 48.526 16.56 73.665 6.411 63.676-4.944 124.262-32.421 182.585v0zM619.704 261.578c-4.648 0.91-9.114 0.887-13.784-0.381-24.764-6.702-50.176-9.756-75.622-12.527-1.53 0.722-3.277 1.28-3.664-0.922-0.108-0.563 2.23-1.559 3.447-2.361 85.003-27.432 167.674-19.991 249.753 15.764-2.264 1.542-3.146 2.623-4.096 2.708-1.712 0.182-3.499-0.068-5.183-0.449-50.159-11.56-100.454-11.878-150.852-1.832v0zM378.637 298.055c-0.506 0.284-0.99 0.558-1.485 0.848 0.404-0.375 0.802-0.722 1.195-1.098l0.29 0.25zM357.884 577.988c1.599 0.575 3.237 1.428 1.951 3.26-0.319 0.466-2.679-0.489-4.107-0.785 0.637-0.887 1.36-1.718 2.156-2.475v0zM234.481 27.759c1.485-2.367 3.146-4.227 6.133-2.048-1.246 1.513-2.492 3.038-3.743 4.551-0.87-0.762-1.667-1.593-2.389-2.503v0zM454.407 767.57c41.256-26.049 77.875-57.674 104.391-98.435 14.825-22.784 31.124-25.372 55.506-17.061-42.826 55.159-94.663 94.657-159.897 115.496v0zM355.728 580.462c-79.502-40.704-132.699-104.425-165.456-187.739 2.697 0.501 4.062 0.358 4.813 0.99 1.326 1.070 2.418 2.514 3.339 3.971 27.29 43.645 62.629 79.428 105.381 107.969 3.937 2.64 7.066 5.808 9.472 10.007 12.772 22.249 28.581 42.388 44.607 62.327-0.796 0.757-1.519 1.587-2.156 2.475v0zM324.206 187.6c1.604 2.628 2.071 5.348 1.536 7.845-10.581 49.169-10.826 98.349-0.831 147.615 0.671 3.351 1.087 7.168 0.154 10.354-7.908 26.903-10.587 54.71-14.689 82.352-28.103-84.571-23.66-167.253 13.83-248.166v0zM259.859 635.303c45.056 9.756 90.288 9.54 135.657 2.532 6.286-0.973 13.153-3.857 18.83-2.355 27.46 7.287 55.472 10.871 85.18 13.682-63.46 30.606-183.119 23.99-251.625-15.138 3.988 0.41 8.073 0.415 11.958 1.28v0zM236.87 30.262c-3.004 3.561-6.030 7.111-9.023 10.695-148.332 177.573-101.899 441.401 98.145 557.562 6.61 3.84 13.335 7.532 20.008 11.281-73.773 4.301-139.975-15.019-200.061-56.041-20.178-13.767-36.153-30.703-48.304-51.968-45.477-79.661-59.068-164.54-37.103-253.252 24.525-99.038 82.159-173.835 173.949-220.78 0.722 0.91 1.519 1.741 2.389 2.503v0zM327.289 118.508c-69.501 100.579-81.306 211.262-45.431 331.907-48.697-46.45-80.27-97.291-96.165-157.423-6.411-24.223-13.705-48.873-9.239-74.149 35.812-203.042 246.078-327.941 441.913-261.518-121.998 8.829-221.178 60.029-291.077 161.183v0zM18.969 343.583c-23.455 67.766-25.788 136.414-3.47 204.066 42.678 129.439 132.164 208.19 265.591 236.39 20.417 4.318 40.681-1.371 60.53-5.791 65.456-14.592 120.94-46.757 166.764-96.728-117.134 33.018-227.828 20.941-328.436-48.646-100.523-69.518-151.489-168.072-160.978-289.291v0z" />
<glyph unicode="&#xe972;" glyph-name="codepen" d="M512.004 20.082c-235.955 0-427.913 191.965-427.913 427.913s191.958 427.913 427.913 427.913c235.947 0 427.905-191.967 427.905-427.913 0-235.949-191.958-427.913-427.905-427.913zM512.004 960c-282.779 0-512.004-229.227-512.004-512.004 0-282.779 229.225-511.998 512.004-511.998 282.77 0 511.996 229.219 511.996 511.998 0 282.777-229.225 512.004-511.996 512.004zM774.164 402.464l-68.064 45.532 68.064 45.529v-91.061zM539.208 209.467v126.9l117.955 78.887 95.217-63.68-213.172-142.107zM512.005 383.63l-96.232 64.366 96.232 64.366 96.224-64.366-96.224-64.366zM484.792 209.467l-213.174 142.107 95.226 63.68 117.948-78.887v-126.9zM249.837 493.525l68.070-45.529-68.070-45.532v91.061zM484.792 686.525v-126.9l-117.948-78.904-95.226 63.7 213.174 142.104zM539.208 686.525l213.172-142.104-95.217-63.7-117.955 78.904v126.9zM828.338 548c-0.057 0.399-0.157 0.781-0.223 1.181-0.135 0.768-0.275 1.535-0.476 2.283-0.118 0.45-0.284 0.882-0.423 1.314-0.218 0.668-0.434 1.334-0.701 1.982-0.186 0.45-0.399 0.899-0.607 1.332-0.286 0.618-0.583 1.218-0.926 1.799-0.249 0.434-0.515 0.851-0.773 1.266-0.367 0.568-0.742 1.118-1.153 1.65-0.297 0.399-0.613 0.799-0.93 1.183-0.434 0.498-0.884 0.998-1.358 1.465-0.356 0.365-0.709 0.731-1.083 1.065-0.5 0.45-1.015 0.884-1.541 1.299-0.406 0.317-0.808 0.633-1.231 0.932-0.159 0.1-0.299 0.234-0.45 0.334l-289.374 192.914c-9.14 6.095-21.041 6.095-30.183 0l-289.372-192.914c-0.151-0.1-0.293-0.234-0.45-0.334-0.426-0.299-0.825-0.616-1.225-0.932-0.533-0.415-1.050-0.849-1.539-1.299-0.384-0.334-0.733-0.701-1.091-1.065-0.474-0.467-0.923-0.967-1.349-1.465-0.325-0.384-0.642-0.784-0.941-1.183-0.399-0.533-0.784-1.083-1.142-1.65-0.275-0.415-0.533-0.832-0.781-1.266-0.334-0.581-0.633-1.181-0.926-1.799-0.207-0.432-0.423-0.882-0.607-1.332-0.266-0.648-0.482-1.314-0.701-1.982-0.142-0.432-0.299-0.864-0.423-1.314-0.201-0.749-0.334-1.515-0.476-2.283-0.065-0.399-0.166-0.781-0.216-1.181-0.159-1.166-0.249-2.349-0.249-3.547v-192.914c0-1.198 0.090-2.382 0.249-3.565 0.050-0.384 0.151-0.781 0.216-1.164 0.142-0.768 0.275-1.532 0.476-2.283 0.124-0.45 0.282-0.882 0.423-1.316 0.218-0.664 0.434-1.332 0.701-1.997 0.183-0.452 0.399-0.884 0.607-1.316 0.293-0.613 0.592-1.214 0.926-1.814 0.249-0.419 0.506-0.832 0.781-1.249 0.358-0.568 0.742-1.118 1.142-1.65 0.299-0.417 0.616-0.799 0.941-1.181 0.426-0.5 0.875-1 1.349-1.467 0.358-0.365 0.707-0.731 1.091-1.063 0.489-0.454 1.006-0.886 1.539-1.301 0.399-0.319 0.799-0.633 1.225-0.932 0.157-0.1 0.299-0.234 0.45-0.332l289.372-192.917c4.571-3.047 9.834-4.58 15.097-4.58 5.254 0 10.515 1.532 15.086 4.58l289.374 192.917c0.151 0.098 0.29 0.231 0.45 0.332 0.423 0.299 0.825 0.613 1.231 0.932 0.526 0.415 1.041 0.847 1.541 1.301 0.373 0.332 0.727 0.699 1.083 1.063 0.474 0.467 0.923 0.967 1.358 1.467 0.317 0.382 0.633 0.764 0.93 1.181 0.41 0.533 0.786 1.083 1.153 1.65 0.258 0.417 0.524 0.83 0.773 1.249 0.343 0.6 0.64 1.201 0.926 1.814 0.207 0.432 0.421 0.864 0.607 1.316 0.266 0.666 0.482 1.334 0.701 1.997 0.14 0.434 0.306 0.867 0.423 1.316 0.201 0.751 0.341 1.515 0.476 2.283 0.065 0.382 0.166 0.779 0.223 1.164 0.151 1.183 0.244 2.366 0.244 3.565v192.914c0 1.198-0.094 2.382-0.244 3.547v0z" />
<glyph unicode="&#xe97d;" glyph-name="console" d="M682.667 192c23.564 0 42.667 19.103 42.667 42.667s-19.103 42.667-42.667 42.667v0-85.333zM341.333 277.333c-23.564 0-42.667-19.103-42.667-42.667s19.103-42.667 42.667-42.667v0 85.333zM371.499 648.832c-7.769 8.036-18.647 13.026-30.69 13.026-23.564 0-42.667-19.103-42.667-42.667 0-12.043 4.989-22.92 13.014-30.678l0.012-0.012 60.331 60.331zM469.333 490.667l30.165-30.165c7.718 7.721 12.492 18.386 12.492 30.165s-4.774 22.445-12.492 30.165v0l-30.165-30.165zM311.168 392.832c-8.036-7.769-13.026-18.647-13.026-30.69 0-23.564 19.103-42.667 42.667-42.667 12.043 0 22.92 4.989 30.678 13.014l0.012 0.012-60.331 60.331zM298.667 789.333h426.667v85.333h-426.667v-85.333zM853.333 661.333v-426.667h85.333v426.667h-85.333zM725.333 106.667h-426.667v-85.333h426.667v85.333zM170.667 234.667v426.667h-85.333v-426.667h85.333zM298.667 106.667c-70.692 0-128 57.308-128 128v0h-85.333c0-117.821 95.513-213.333 213.333-213.333v0 85.333zM853.333 234.667c0-70.692-57.308-128-128-128v0-85.333c117.821 0 213.333 95.513 213.333 213.333v0h-85.333zM725.333 789.333c70.692 0 128-57.308 128-128v0h85.333c0 117.821-95.513 213.333-213.333 213.333v0-85.333zM298.667 874.667c-117.821 0-213.333-95.513-213.333-213.333v0h85.333c0 70.692 57.308 128 128 128v0 85.333zM682.667 277.333h-341.333v-85.333h341.333v85.333zM311.168 588.501l128-128 60.331 60.331-128 128-60.331-60.331zM439.168 520.832l-128-128 60.331-60.331 128 128-60.331 60.331z" />
<glyph unicode="&#xe983;" glyph-name="creative-commons" d="M511.304 960c-140.466 0-264.073-51.983-359.594-148.895-98.336-99.727-151.71-228.965-151.71-363.801 0-136.259 51.967-262.682 150.303-361.002 98.336-98.336 226.15-151.71 361.002-151.71 134.836 0 265.481 53.374 366.616 153.102 95.521 94.113 146.080 219.128 146.080 359.61 0 139.058-50.559 265.465-147.488 362.393-98.32 98.336-224.742 150.303-365.208 150.303v0zM512.696 867.294c115.194 0 217.737-43.538 297.79-123.624 78.662-78.646 120.792-182.596 120.792-296.367 0-115.178-40.739-216.329-119.385-293.584-82.885-81.461-189.634-125.015-299.198-125.015-110.955 0-214.905 43.538-294.975 123.624-80.070 80.070-125.015 185.411-125.015 294.975 0 110.955 44.945 216.297 125.015 297.79 78.662 80.054 179.797 122.2 294.975 122.2v0zM506.095 532.503c-28.96 52.808-78.371 73.825-135.725 73.825-83.484 0-149.931-59.053-149.931-159.007 0-101.653 62.467-159.023 152.762-159.023 57.937 0 107.348 31.808 134.593 80.070l-63.6 32.374c-14.205-34.057-35.788-44.298-63.033-44.298-47.146 0-68.728 39.185-68.728 90.877 0 51.659 18.185 90.861 68.728 90.861 13.623 0 40.884-7.378 56.788-41.467l68.146 35.788zM801.863 532.503c-28.96 52.808-78.371 73.825-135.725 73.825-83.484 0-149.931-59.053-149.931-159.007 0-101.653 62.467-159.023 152.762-159.023 57.937 0 107.348 31.808 134.593 80.070l-63.6 32.374c-14.205-34.057-35.788-44.298-63.033-44.298-47.146 0-68.728 39.185-68.728 90.877 0 51.659 18.185 90.861 68.728 90.861 13.623 0 40.884-7.378 56.788-41.467l68.146 35.788z" />
<glyph unicode="&#xe98e;" glyph-name="debian" d="M113.324 739.541v0c1.826-23.558-18.119-32.477 4.569-16.616 11.785 26.55-3.272 9.507-4.569 16.616zM113.436 738.163v0c-0.141 0.751-0.226 1.583-0.209 2.598 0.098-0.883 0.141-1.732 0.209-2.598zM94.417 663.049v0c-2.030-9.44-2.992-19.238-8.308-35.554 1.549 12.775-6.384 16.775 8.308 35.554zM556.352 960v0c-12.168-2.767-28.892-0.868-40.367-5.072l-6.867 0.938c15.592 2.008 31.383 2.799 47.234 4.134zM530.284 940.064l-5.966-1.118 6.401 2.812-0.435-1.694zM512.635 946.792v0c30.241-0.862 27.991-2.864 18.083-5.034 1.485 2.162-9.032 3.409-18.083 5.034zM418.134 396.733l5.22-15.392c-7.128 12.024-14.787 23.843-18.524 37.608 3.908-7.831 7.404-15.691 13.304-22.215zM602.334 406.833v0c-22.149 3.417-42.325 11.915-25.358 12.16 14.14-1.293 28.173-1.218 41.974 2.158-4.95-4.701-10.499-9.535-16.616-14.318zM668.037 441.691v0c1.24 11.987-28.177-5.2 5.924 37.732-2.956-12.1-31.69-43.922 0.018-23.955 5.757 10.25 11.857 19.971 14.126 31.225-2.583-15.789-9.951-31.059-20.067-45.002zM701.661 529.162v0c-3.060-12.304-5.575 7.587-8.733 9.234 2.707 11.663 10.775 21.32 8.733-9.234zM507.168 309.556v0c-0.641 2.431 0.373 4.062 1 5.677 0.513-4.395 17.184-17.146 29.75-23.612 33.025-12.208 70.366-12.691 99.767-11.599-63.534-26.576-184.851 26.975-224.539 98.034 8.98-1.958 39.734-49.94 62.755-57.741-13.609 10.907-24.133 24.782-33.888 39.066 18.388-21.133 40.742-38.391 65.155-49.825zM508.868 316.243v0c-0.171-0.721-0.405-1.434-0.687-2.146-0.107 0.892 0.128 1.609 0.687 2.146zM389.394 383.799c11.15-15.152 19.995-31.558 34.237-43.401-10.246 19.999-17.855 28.267-31.858 55.302l-2.379-11.901zM872.951 594.087c0.285 15.578 4.332 8.164 5.908 11.999-3.058 1.757-11.082 13.701-15.975 36.61 3.543 5.381 9.469-13.957 14.284-14.749-3.1 18.216-8.434 32.105-8.649 46.080-14.068 29.403-4.976-3.922-16.392 12.621-14.977 46.713 12.424 10.845 14.274 32.067 22.7-32.888 35.65-83.854 41.583-104.967-4.533 25.742-11.857 50.675-20.801 74.8 6.899-2.9-11.1 52.964 8.968 15.967-21.44 78.862-91.731 152.55-156.408 187.126 7.907-7.238 17.909-16.338 14.316-17.763-32.157 19.155-26.508 20.642-31.107 28.734-26.207 10.659-27.917-0.86-45.275-0.016-49.393 26.191-58.909 23.408-104.36 39.822l2.084-9.663c-32.734 10.897-38.125-4.136-73.484-0.038-2.15 1.679 11.332 6.080 22.424 7.691-31.634-4.172-30.153 6.234-61.103-1.146 7.629 5.35 15.697 8.891 23.829 13.442-25.792-1.567-61.578-15.007-50.533-2.783-42.070-18.775-116.796-45.126-158.732-84.447l-1.317 8.813c-19.216-23.067-83.792-68.893-88.938-98.767l-5.136-1.2c-10-16.929-16.466-36.117-24.396-53.533-13.080-22.284-19.169-8.575-17.308-12.068-25.72-52.154-38.495-95.972-49.533-131.908 7.861-11.759 0.188-70.77 3.162-118.001-12.921-233.258 163.708-459.743 356.776-512.027 28.291-10.134 70.384-9.741 106.174-10.783-42.233 12.084-47.699 6.399-88.834 20.749-29.676 13.967-36.183 29.935-57.2 48.166l8.316-14.699c-41.221 14.591-23.975 18.059-57.508 28.682l8.883 11.601c-13.362 1.008-35.393 22.524-41.417 34.425l-14.617-0.575c-17.558 21.674-26.917 37.283-26.237 49.385l-4.721-8.408c-5.35 9.184-64.616 81.259-33.866 64.492-5.713 5.218-13.308 8.493-21.542 23.45l6.262 7.15c-14.795 19.041-27.229 43.443-26.287 51.567 7.891-10.659 13.366-12.651 18.791-14.468-37.365 92.701-39.461 5.108-67.762 94.35l5.992 0.499c-4.595 6.899-7.38 14.408-11.068 21.775l2.605 25.967c-26.901 31.101-7.529 132.247-3.645 187.717 2.691 22.558 22.454 46.571 37.487 84.225l-9.162 1.579c17.508 30.538 99.953 122.634 138.138 117.896 18.5 23.237-3.667 0.084-7.288 5.938 40.633 42.046 53.408 29.704 80.828 37.271 29.576 17.554-25.384-6.845-11.358 6.697 51.116 13.054 36.229 29.68 102.921 36.313 7.034-4.004-16.328-6.182-22.191-11.38 42.595 20.837 134.788 16.101 194.663-11.563 69.492-32.479 147.558-128.467 150.635-218.78l3.507-0.942c-1.775-35.904 5.493-77.421-7.1-115.56l8.575 18.055c1-27.442-8.034-40.75-16.174-64.322l-14.667-7.328c-11.999-23.302 1.158-14.793-7.425-33.325-18.735-16.667-56.859-52.126-69.051-55.368-8.915 0.2 6.026 10.517 7.984 14.55-25.075-17.216-20.125-25.849-58.476-36.299l-1.126 2.483c-94.599-44.501-225.988 43.683-224.258 164.021-1.016-7.637-2.876-5.729-4.972-8.821-4.88 61.917 28.596 124.101 85.046 149.492 55.216 27.333 119.949 16.116 159.508-20.747-21.724 28.458-64.967 58.625-116.225 55.803-50.2-0.792-97.166-32.7-112.841-67.334-25.724-16.196-28.708-62.426-39.916-70.885-15.075-110.825 28.367-158.7 101.859-215.024 5.853-3.95 6.613-6.2 6.138-8.23 0.024 0.024 0.036 0.050 0.060 0.072 86.7-32.383 176.267-24.534 251.275 35.6 19.083 14.867 39.934 40.15 45.96 40.501-9.074-13.635 1.549-6.557-5.425-18.608 19.025 30.676-8.258 12.49 19.658 52.968l10.316-14.2c-3.833 25.45 31.616 56.366 28.017 96.625 8.134 12.314 9.066-13.246 0.441-41.575 11.967 31.425 3.158 36.475 6.232 62.404 3.327-8.713 7.685-17.975 9.925-27.175-7.801 30.367 8 51.142 11.907 68.788-3.838 1.711-12.030-13.424-13.905 22.448v0z" />
<glyph unicode="&#xe992;" glyph-name="descending" d="M508.548 246.886l-15.087-15.083-194.795 194.795 30.17 30.17 143.291-143.292v347.853h42.667v-347.853l143.292 143.292 30.174-30.17-179.712-179.712z" />
<glyph unicode="&#xe99b;" glyph-name="dislike-fill" d="M554.667-64h42.539l0.128 42.539v11.136l0.085 29.781 0.256 94.165c0.171 71.040 0.341 149.248 0.341 177.621 0 17.92 6.613 35.413 19.371 48.299 12.245 12.416 32.725 23.125 65.28 23.125h298.624l0.043 42.667v-42.667h42.667v597.333h-853.334c-49.237 0-93.995-12.373-126.165-44.501-32.171-32.171-44.501-76.928-44.501-126.165v-469.334h298.667v-213.333c0-49.237 12.373-93.995 44.501-126.165 32.171-32.171 76.928-44.501 126.165-44.501h85.333zM810.667 448v426.667h128v-426.667h-128z" />
<glyph unicode="&#xe99c;" glyph-name="docker" d="M296.201 324.257v0c-10.3 0-18.656-8.351-18.656-18.656 0-10.302 8.356-18.653 18.656-18.653s18.653 8.351 18.653 18.653c0 2.536-0.51 4.952-1.421 7.154-1.296-2.363-3.796-3.962-6.677-3.962-4.207 0-7.616 3.404-7.616 7.611 0 2.814 1.541 5.276 3.812 6.593-2.097 0.811-4.368 1.26-6.751 1.26zM296.201 273.691c-17.597 0-31.915 14.313-31.915 31.91s14.318 31.913 31.915 31.913c17.594 0 31.91-14.316 31.91-31.913s-14.316-31.91-31.91-31.91v0zM869.8 482.824c-90.622-240.127-295.28-347.086-536.564-347.086-114.005 0-204.957 39.212-263.125 104.593l0.429 0.283c16.76-0.85 31.757-1.138 46.981-1.138 13.92 0 27.537 0.145 40.148 0.855 1.097 0.061 2.47 0.214 3.559 0.283 0.010 0.003 3.891 0.255 1.993 0.286 32.050 1.977 56.893 6.432 80.059 13.043 0.005 0.003 0.010 0.003 0.015 0.005 4.21 1.204 8.292 2.472 12.203 3.827 4.376 1.518 6.692 6.294 5.177 10.67-1.516 4.378-6.289 6.7-10.667 5.177-29.425-10.195-68.244-15.808-115.819-16.862h-0.013c-24.207-0.536-50.67 0.102-79.371 1.947h-0.003c-5.937 7.927-11.433 16.165-16.459 24.697l-7.945 14.528c-24.003 47.19-34.512 102.318-28.935 162.186h698.121c57.352 0 113.363 21.403 139.943 45.014-47.629 38.727-42.909 130.717-12.553 165.819 26.345-21.169 68.828-65.759 61.521-122.522 33.153 16.666 90.729 24.901 135.503-0.936-28.111-54.87-89.903-71.262-154.2-64.667v0zM96.217 477.061h94.406v94.411h-94.406v-94.411zM205.145 477.061h94.416v94.411h-94.416v-94.411zM205.145 585.994h94.416v94.408h-94.416v-94.408zM314.081 477.061h94.411v94.411h-94.411v-94.411zM314.081 585.994h94.411v94.408h-94.411v-94.408zM423.012 477.061h94.411v94.411h-94.411v-94.411zM423.012 585.994h94.411v94.408h-94.411v-94.408zM423.012 694.922h94.411v94.411h-94.411v-94.411zM531.943 477.061h94.411v94.411h-94.411v-94.411z" />
<glyph unicode="&#xe9bd;" glyph-name="dos" d="M0 766.036l210.512 5.282c40.868 0.895 78.665-3.509 116.897-16.697v-7.475c-32.957-28.117-56.681-61.521-78.223-98.88l-127.887-0.889 0.873-362.571 75.593-5.26 77.35 0.878c46.145 0.453 88.77 74.272 92.736 114.267l11.415 126.119c4.845 55.377 36.923 98.002 86.582 120.864 31.205-52.299 44.824-110.312 44.824-171.396 0-192.070-119.080-313.349-306.757-306.321l-203.916 7.906v594.172zM883.351 588.047c-10.105 58.459-58.88 87.46-117.35 87.46-39.968 0-105.461-17.559-107.649-67.67-0.458-2.646 0-4.829 0.873-7.049l23.724-68.112c4.84-14.056 5.718-29.432 5.718-44.382 0-17.128-2.199-34.272-4.387-51.415-84.377 23.73-143.721 64.593-143.721 159.528 0 127.892 103.284 187.677 221.060 187.677 130.964 0 233.364-61.117 241.723-196.036h-119.991zM531.775 359.086l117.339-0.884c12.304-75.145 61.963-95.808 135.798-95.808 46.145 0 115.14 10.984 115.14 69.88 0 30.763-24.172 46.597-48.78 60.211l6.144 117.334c93.61-25.471 166.583-60.637 166.583-170.501 0-130.102-123.947-185.031-238.209-185.031-81.737 0-187.65 23.735-231.17 101.074-13.619 23.741-26.354 54.498-26.354 82.189 0 2.194 0.426 4.392 0.873 6.586l2.635 14.95zM840.734 471.166c0-67.25-18.017-130.091-48.78-188.987-7.923-0.431-15.829-1.304-23.741-1.304-25.492 0-87.455 17.122-87.455 48.322 0 5.266 0.873 10.547 2.635 15.392l23.282 77.775c4.845 15.387 3.088 33.851 3.088 49.222 0 60.222-27.249 98.013-29.453 139.323-1.31 28.99 53.625 42.636 72.968 42.636 13.183 0 26.354 0 39.537-1.315 31.652-55.829 47.918-116.477 47.918-181.064zM452.677 233.4l27.68 39.537 46.139-0.862c21.984-47.907 58.018-80.432 101.963-108.56-32.083-10.553-63.725-15.818-97.129-15.818-48.78 0-94.493 10.989-139.749 28.128l61.095 57.576zM534.855 673.762c-7.044 0.437-14.072 0.868-21.094 0.868-74.278 0-141.958-65.029-150.743-137.986l-19.343-158.655c-2.635-22.42-21.978-45.266-36.487-61.531-12.293-13.172-26.796-15.813-44.819-15.813h-2.199c-22.851 52.725-34.719 107.223-34.719 164.799 0 180.622 101.079 323.891 289.182 323.891 36.918 0 72.068-7.028 106.781-16.697-36.902-27.244-65.913-57.576-86.56-98.875z" />
<glyph unicode="&#xe9c0;" glyph-name="download-option" d="M512-64c-282.77 0-512 229.231-512 512s229.23 512 512 512c282.769 0 512-229.23 512-512s-229.231-512-512-512zM85.333 448c0-235.639 191.025-426.667 426.667-426.667 235.639 0 426.667 191.027 426.667 426.667 0 235.642-191.027 426.667-426.667 426.667-235.642 0-426.667-191.025-426.667-426.667zM695.164 478.17l-140.497-140.497v366.327h-85.333v-366.327l-140.497 140.497-60.34-60.339 243.503-243.503 243.503 243.503-60.339 60.339z" />
<glyph unicode="&#xe9c3;" glyph-name="dribbble" d="M487.758 591.569c-75.546 134.374-156.421 243.879-162.273 251.925-121.94-57.574-212.95-169.9-241.371-305.319 11.494-0.209 193.724-2.403 403.644 53.394zM542.302 444.656c5.747 1.776 11.494 3.553 17.241 5.224-10.971 24.869-22.988 49.737-35.527 74.292-225.176-67.396-441.26-62.485-448.888-62.276-0.104-4.598-0.313-9.195-0.313-13.897 0-112.431 42.423-214.936 112.222-292.362-0.104 0.104-0.313 0.418-0.313 0.418s119.641 212.323 355.579 288.601zM243.252 103.288l0.104 0.209c-3.239 2.508-6.687 4.911-9.927 7.523 5.851-4.702 9.822-7.732 9.822-7.732zM410.419 871.414c-1.552-0.427-2.715-0.853-4.267-1.28 2.327 0.853 3.879 1.28 4.267 1.28v0zM800.81 776.098c-77.009 67.918-178.051 109.192-288.81 109.192-35.527 0-70.008-4.389-103.027-12.33 6.687-8.777 88.712-117.864 163.422-255.060 164.885 61.753 227.265 156.421 228.415 158.198zM512-64c-282.749 0-512 229.251-512 512s229.251 512 512 512c282.749 0 512-229.251 512-512s-229.251-512-512-512zM586.397 376.424c-256.627-89.443-341.368-269.27-343.040-272.927 74.188-57.887 167.288-92.682 268.643-92.682 60.604 0 118.282 12.33 170.736 34.586-6.478 38.348-31.869 172.304-93.414 332.069-1.045-0.418-1.985-0.627-2.926-1.045zM606.041 552.699c10.24-20.898 19.958-42.005 29.048-63.425 3.239-7.523 6.374-15.047 9.404-22.57 150.988 19.017 299.677-13.27 304.588-14.315-1.045 103.758-38.139 198.844-99.474 273.345-0.836-1.254-70.949-102.609-243.566-173.035zM671.242 397.636c57.469-157.78 80.666-286.198 85.055-312.32 98.22 66.247 167.915 171.363 187.35 293.303-8.673 2.821-131.030 41.691-272.405 19.017z" />
<glyph unicode="&#xe9c5;" glyph-name="dropbox" d="M301.222 917.333l-301.216-196.672 208.288-166.784 303.712 187.52-210.784 175.936zM0 387.068l301.216-196.672 210.784 175.936-303.712 187.52-208.288-166.784zM511.994 366.329l210.784-175.936 301.216 196.672-208.288 166.816-303.712-187.552zM1024 720.658l-301.216 196.672-210.784-175.936 303.712-187.52 208.288 166.784zM512.618 328.479l-211.392-175.424-90.464 59.072v-66.208l301.856-181.024 301.856 181.024v66.208l-90.464-59.072-211.392 175.424z" />
<glyph unicode="&#xe9c7;" glyph-name="dxc" d="M512 362.667l170.667-298.667h-341.333l170.667 298.667zM512 533.333l-170.667 298.667h341.333l-170.667-298.667zM85.333 192c-57.274 0-85.719 0-85.333 0v512h85.333c141.385 0 256-114.615 256-256s-114.615-256-256-256zM938.667 192c-141.385 0-256 114.615-256 256s114.615 256 256 256h85.333v-512c0.385 0-28.059 0-85.333 0z" />
<glyph unicode="&#xe9c8;" horiz-adv-x="2560" d="M331.66 737.357c-180.444 0-330.807-75.921-330.807-304.969 0-181.457 101.109-295.728 335.466-295.728 275.85 0 293.533 180.209 293.533 180.209h-133.662c0 0-28.658-97.036-168.024-97.036-113.51 0-195.151 76.045-195.151 182.634h510.815v66.886c0 105.45-67.499 268.003-312.17 268.003v0zM327.001 651.873c108.050 0 181.711-65.646 181.711-164.037h-372.74c0 104.453 96.147 164.037 191.029 164.037v0z" />
<glyph unicode="&#xe9c9;" horiz-adv-x="2560" d="M643.736 959.153v-707.466c0-40.158-2.89-96.544-2.89-96.544h127.486c0 0 4.576 40.498 4.576 77.508 0 0 62.986-97.724 234.25-97.724 180.348 0 302.851 124.175 302.851 302.081 0 165.504-112.523 298.616-302.56 298.616-177.956 0-233.254-95.303-233.254-95.303v318.832h-130.459zM974.543 648.119c122.47 0 200.348-90.143 200.348-211.11 0-129.716-89.946-214.576-199.474-214.576-130.712 0-201.222 101.216-201.222 213.421 0 104.553 63.27 212.266 200.348 212.266z" />
<glyph unicode="&#xe9ca;" horiz-adv-x="2560" d="M1626.838 737.357c-271.464 0-288.874-147.412-288.874-170.968h135.118c0 0 7.086 86.061 144.437 86.061 89.253 0 158.415-40.515 158.415-118.407v-27.724h-158.415c-210.307 0-321.489-61.015-321.489-184.83 0-121.852 102.728-188.151 241.553-188.151 189.197 0 250.144 103.678 250.144 103.678 0-41.237 3.206-81.874 3.206-81.874h120.119c0 0-4.659 50.37-4.659 82.596v278.544c0 182.638-148.544 221.074-279.555 221.074v0zM1775.934 423.146v-36.966c0-48.214-29.999-168.080-206.609-168.080-96.711 0-138.176 47.867-138.176 103.389 0 101.006 139.638 101.656 344.785 101.656v0z" />
<glyph unicode="&#xe9cb;" horiz-adv-x="2560" d="M1833.643 714.24h151.979l218.155-433.451 217.685 433.451h137.685l-396.459-771.669h-144.427l114.389 215.125z" />
<glyph unicode="&#xe9cc;" glyph-name="edge" d="M924.416 197.419c-13.653-7.040-27.733-13.141-42.283-18.773-42.618-16.373-91.921-25.856-143.438-25.856-0.108 0-0.215 0-0.323 0h0.017c-189.312 0-354.133 130.133-354.133 297.387 0 47.019 27.221 87.893 65.707 109.056-171.435-7.083-215.125-185.6-215.125-289.92 0-295.552 272.469-325.632 331.179-325.632 31.445 0 79.36 9.387 108.032 18.347 1.945 0.468 3.651 1.112 5.248 1.938l-0.128-0.060c112.211 39.742 204.025 113.802 265.132 209.388l1.236 2.068c8.96 13.611-6.571 30.037-21.12 22.059zM422.741-6.016c-36.209 22.665-66.52 51.181-90.49 84.558l-0.646 0.946c-37.881 52.493-60.588 118.121-60.588 189.053 0 0.271 0 0.542 0.001 0.813v-0.042c-0.001 0.316-0.002 0.69-0.002 1.063 0 103.098 48.013 194.982 122.899 254.511l0.665 0.511c15.98 12.446 33.993 23.854 53.075 33.448l1.879 0.856c12.672 6.101 33.792 16.427 61.995 15.957 46.933-0.469 82.645-24.448 102.827-51.669 15.452-20.621 24.91-46.516 25.385-74.598l0.001-0.111c0 0.939 97.707 318.549-320.341 318.549-174.72 0-319.403-166.827-319.403-313.387 0-92.587 21.589-166.827 48.384-224.128 61.399-128.318 170.617-225.484 303.99-269.593l3.637-1.042c46.457-15.504 99.946-24.449 155.523-24.449 0.329 0 0.657 0 0.986 0.001h-0.051c56.32 0 110.848 9.387 162.048 26.325-27.234-8.889-58.576-14.035-91.114-14.080h-0.022c-59.564 0.377-115.018 17.647-161.906 47.253l1.266-0.746zM609.237 364.203c-3.285-4.224-13.184-9.813-13.184-22.528 0-10.325 6.571-20.693 18.773-29.141 57.813-39.936 165.845-34.773 166.315-34.773 44.629 0 84.992 12.672 121.173 33.365 16.469 9.387 31.488 21.163 45.099 33.835 46.976 44.629 75.648 107.605 76.587 177.621 0.939 89.728-32 149.419-45.568 175.701-84.565 166.357-267.264 261.717-466.432 261.717-280.448 0-508.245-225.536-512-505.088 1.877 146.133 147.029 264.533 319.872 264.533 14.080 0 93.952-1.408 168.149-40.405 65.28-34.304 99.584-75.648 123.563-116.992 24.875-42.752 29.099-96.811 29.099-117.931 0-21.163-11.264-53.589-31.445-79.915z" />
<glyph unicode="&#xe9d0;" glyph-name="emergency" d="M426.667 654.013v220.654h170.667v-220.654l156.026 156.026 120.68-120.68-156.026-156.026h220.654v-170.667h-220.654l156.026-156.026-120.68-120.68-156.026 156.026v-220.654h-170.667v220.654l-156.026-156.026-120.68 120.68 156.026 156.026h-220.654v170.667h220.654l-156.026 156.026 120.68 120.68 156.026-156.026z" />
<glyph unicode="&#xe9d1;" glyph-name="emoji" d="M512 886.187c-0.38 0.001-0.83 0.002-1.28 0.002-242.004 0-438.187-196.183-438.187-438.187s196.183-438.187 438.187-438.187c242.003 0 438.185 196.182 438.187 438.184v0.001c0.001 0.254 0.001 0.554 0.001 0.854 0 241.383-195.558 437.091-436.884 437.333h-0.023zM896 448c0-212.077-171.923-384-384-384s-384 171.923-384 384c0 212.077 171.923 384 384 384v0c212.077 0 384-171.923 384-384v0zM375.467 488.533c0.498-0.013 1.085-0.021 1.673-0.021 36.524 0 66.133 29.609 66.133 66.133s-29.609 66.133-66.133 66.133c-36.524 0-66.133-29.609-66.133-66.133 0-0.743 0.012-1.483 0.037-2.22l-0.003 0.107c1.369-34.93 29.457-62.869 64.321-63.997l0.106-0.003zM658.773 488.533c1.589-0.136 3.44-0.213 5.308-0.213 36.524 0 66.133 29.609 66.133 66.133s-29.609 66.133-66.133 66.133c-1.868 0-3.718-0.077-5.547-0.229l0.24 0.016c-35.706-0.453-64.477-29.504-64.477-65.275 0-0.902 0.018-1.8 0.055-2.693l-0.004 0.128c0.242-35.398 28.993-64 64.425-64 0 0 0.001 0 0.001 0v0zM520.107 262.4c-93.443 1.927-175.445 49.218-225.099 120.677l-0.607 0.923c31.34-97.77 120.191-167.823 225.807-170.66l0.327-0.007c106.933 0.232 197.173 71.435 226.134 168.994l0.426 1.672c-48.454-73.66-130.741-121.614-224.229-121.614-0.97 0-1.938 0.005-2.906 0.015l0.147-0.001z" />
<glyph unicode="&#xe9d6;" horiz-adv-x="2048" d="M298.667 618.667h1450.667v-341.333h-1450.667v341.333z" />
<glyph unicode="&#xe9d7;" horiz-adv-x="2048" d="M42.667 618.667h256v-341.333h-256v341.333z" />
<glyph unicode="&#xe9d8;" horiz-adv-x="2048" d="M1749.333 618.667h256v-341.333h-256v341.333z" />
<glyph unicode="&#xe9d9;" horiz-adv-x="2048" d="M298.667 277.333h1450.667v-256h-1450.667v256z" />
<glyph unicode="&#xe9da;" horiz-adv-x="2048" d="M298.667 874.667h1450.667v-256h-1450.667v256z" />
<glyph unicode="&#xe9db;" horiz-adv-x="2048" d="M42.667 618.667l256 256v-256h-256z" />
<glyph unicode="&#xe9dc;" horiz-adv-x="2048" d="M42.667 277.333l256-256v256h-256z" />
<glyph unicode="&#xe9dd;" horiz-adv-x="2048" d="M2005.333 618.667l-256 256v-256h256z" />
<glyph unicode="&#xe9de;" horiz-adv-x="2048" d="M2005.333 277.333l-256-256v256h256z" />
<glyph unicode="&#xe9df;" glyph-name="facebook" d="M512 960c-282.752 0-512-229.248-512-512 0-256.683 189.099-468.651 435.499-505.685v370.005h-126.72v134.613h126.72v89.515c0 148.267 72.235 213.333 195.413 213.333 59.051 0 90.24-4.352 105.045-6.357v-117.461h-84.053c-52.309 0-70.613-49.621-70.613-105.515v-73.557h153.344l-20.821-134.613h-132.523v-371.029c249.899 33.877 442.709 247.552 442.709 506.752 0 282.752-229.248 512-512 512z" />
<glyph unicode="&#xe9e0;" glyph-name="facebook-option" d="M424.309 21.333v376.928h-125.643v157.053h125.643v125.643c0 129.82 82.202 193.71 198.013 193.71 55.471 0 103.153-4.146 117.036-5.968v-135.694l-80.317-0.031c-62.978 0-77.679-29.934-77.679-73.846v-103.812h157.053l-31.411-157.053h-125.643l2.513-376.928z" />
<glyph unicode="&#xe9e5;" glyph-name="fedora" d="M511.992 960c-282.646 0-511.792-229.045-511.992-511.653v-396.214c0.15-64.167 52.196-116.117 116.403-116.117h395.797c282.682 0.11 511.8 229.268 511.8 511.972 0 282.77-229.234 512.012-512.008 512.012v0zM708.067 722.067c-16.174 0-22.051 3.108-45.749 3.108-69.967 0-126.715-56.669-126.834-126.635v-110.213c0-9.875 8.016-17.879 17.915-17.879l83.325-0.018c31.043 0 56.126-24.762 56.126-55.887 0.018-31.327-25.341-55.991-56.717-55.991h-100.651v-127.359c0-132.701-107.586-240.301-240.291-240.301-20.133 0-34.449 2.276-53.088 7.142-27.175 7.116-49.382 29.399-49.39 55.316 0 31.315 22.738 54.108 56.729 54.108 16.18 0 22.045-3.108 45.751-3.108 69.963 0 126.711 56.673 126.838 126.631v110.219c0 9.883-8.030 17.883-17.917 17.883l-83.325 0.010c-31.047 0-56.13 24.764-56.13 55.891-0.016 31.331 25.341 55.987 56.721 55.987h100.637v127.367c0 132.701 107.6 240.297 240.301 240.297 20.133 0 34.449-2.272 53.082-7.146 27.183-7.108 49.384-29.391 49.4-55.308 0-31.327-22.74-54.114-56.733-54.114v0z" />
<glyph unicode="&#xe9e6;" d="M853.333 448c0-94.257-76.41-170.667-170.667-170.667s-170.667 76.41-170.667 170.667c0 94.257 76.41 170.667 170.667 170.667s170.667-76.41 170.667-170.667z" />
<glyph unicode="&#xe9e7;" d="M341.333-64c94.257 0 170.667 76.41 170.667 170.667 0 25.73 0 82.619 0 170.667-76.67 0-133.559 0-170.667 0-94.257 0-170.667-76.41-170.667-170.667s76.41-170.667 170.667-170.667z" />
<glyph unicode="&#xe9e8;" d="M341.333 277.333c31.419 0 88.308 0 170.667 0v341.333c-82.359 0-139.248 0-170.667 0-94.257 0-170.667-76.41-170.667-170.667s76.41-170.667 170.667-170.667z" />
<glyph unicode="&#xe9e9;" d="M341.333 618.667c31.419 0 88.308 0 170.667 0v341.333c-82.359 0-139.248 0-170.667 0-94.257 0-170.667-76.41-170.667-170.667s76.41-170.667 170.667-170.667z" />
<glyph unicode="&#xe9ea;" d="M682.667 618.667h-170.667v341.333h170.667c94.257 0 170.667-76.41 170.667-170.667s-76.41-170.667-170.667-170.667z" />
<glyph unicode="&#xe9ee;" glyph-name="firefox" d="M181.314 917.333c-2.106-54.017-4.114-105.445-6.147-157.188 26.621 6.583 52.686 10.479 78.049-0.436 55.106 75.436 134.342 101.38 221.636 110.963 0.532-0.871 1.089-1.742 1.621-2.614-1.742-1.864-3.437-3.751-5.227-5.566-34.971-35.528-63.093-75.895-83.107-121.467-5.736-13.045-7.067-28.049-10.165-42.207-1.21-5.518 1.573-8.47 7.164-9.245 25.895-3.533 51.743-7.672 77.735-10.649 16.312-1.864 32.817-2.202 49.25-2.88 7.696-0.315 11.012-4.138 11.181-11.399 0.653-29.187-9.1-54.187-32.381-72.12-22.435-17.256-48.209-28.291-75.992-34.293-2.88-0.629-5.736-1.476-8.882-2.299 2.783-35.503 5.542-70.353 8.47-107.285-26.96 12.924-52.759 25.266-79.114 37.875-7.938-16.723-8.519-33.277-3.509-50.169 13.504-45.765 61.084-72.314 110.334-60.14 17.256 4.259 33.93 11.52 50.194 18.901 16.046 7.309 31.099 16.699 46.757 24.879 26.549 13.843 53.291 12.633 79.961 0.29 3.8-1.767 7.648-4.090 10.6-7.043 10.019-10.019 17.812-21.467 13.795-36.568-3.896-14.593-14.497-23.040-28.896-26.089-8.277-1.767-16.893-2.517-25.339-2.493-5.615 0.024-8.616-1.815-11.689-6.341-28.993-43.030-66.626-74.734-119.046-83.809-22.023-3.8-44.797-3.17-67.231-4.429-2.977-0.169-5.954 0.266-10.891 0.532 2.977-2.759 4.477-4.453 6.268-5.784 59.318-43.804 124.903-58.761 196.902-41.53 58.906 14.061 111.302 40.465 154.55 83.809 41.215 41.336 60.068 91.747 60.673 149.177 0.605 57.72-12.294 112.367-41.82 162.44-5.155 8.761-11.883 16.602-19.361 26.912 50.823-23.040 95.62-49.226 116.36-103.267 6.123 67.498-6.317 131.389-32.357 193.054-26.016 61.617-63.359 114.956-114.4 159.197 2.13-0.46 4.284-0.799 6.341-1.452 114.956-36.012 203.219-104.526 258.374-212.972 26.718-52.493 40.392-108.858 47.435-166.941 7.551-62.173 6.655-123.984-9.221-185.092-26.549-102.299-82.575-185.987-160.14-256.559-73.814-67.159-159.802-110.721-258.229-123.185-219.264-27.783-392.086 51.137-514.666 235.794-48.766 73.475-71.781 155.687-76.186 243.684-7.115 142.933 25.121 276.234 95.958 400.291 20.62 36.157 45.474 69.264 75.823 97.991 2.154 2.033 4.38 3.969 8.567 7.72z" />
<glyph unicode="&#xe9ef;" glyph-name="firewall" d="M256.24 873.844c-23.564 0-42.667-19.102-42.667-42.667s19.102-42.667 42.667-42.667h255.999c23.565 0 42.667 19.103 42.667 42.667s-19.102 42.667-42.667 42.667h-255.999zM508.693 746.853c-25.92 0-46.933-21.012-46.933-46.933v-76.8c0-25.92 21.013-46.933 46.933-46.933h247.467c25.92 0 46.933 21.013 46.933 46.933v76.8c0 25.921-21.013 46.933-46.933 46.933h-247.467zM132.267 746.839c-25.92 0-46.933-21.013-46.933-46.933v-76.8c0-25.92 21.013-46.933 46.933-46.933h247.467c25.92 0 46.933 21.013 46.933 46.933v76.8c0 25.92-21.013 46.933-46.933 46.933h-247.467zM132.267 320.495c-25.92 0-46.933-21.013-46.933-46.933v-76.8c0-25.92 21.013-46.933 46.933-46.933h247.467c25.92 0 46.933 21.013 46.933 46.933v76.8c0 25.92-21.013 46.933-46.933 46.933h-247.467zM461.76 273.562c0 25.92 21.013 46.933 46.933 46.933h247.467c25.92 0 46.933-21.013 46.933-46.933v-76.8c0-25.92-21.013-46.933-46.933-46.933h-247.467c-25.92 0-46.933 21.013-46.933 46.933v76.8zM206.844 487.569c0 25.92 21.013 46.932 46.933 46.932h247.467c25.92 0 46.933-21.012 46.933-46.932v-76.8c0-25.92-21.013-46.933-46.933-46.933h-247.467c-25.92 0-46.933 21.013-46.933 46.933v76.8zM627.776 532.834c-25.92 0-46.933-21.013-46.933-46.933v-76.8c0-25.92 21.013-46.933 46.933-46.933h247.467c25.92 0 46.933 21.013 46.933 46.933v76.8c0 25.92-21.013 46.933-46.933 46.933h-247.467zM597.333 831.177c0 23.564 19.102 42.667 42.667 42.667h256c23.565 0 42.667-19.102 42.667-42.667s-19.102-42.667-42.667-42.667h-256c-23.565 0-42.667 19.103-42.667 42.667zM640 107.49c-23.565 0-42.667-19.106-42.667-42.667 0-23.565 19.102-42.667 42.667-42.667h256c23.565 0 42.667 19.102 42.667 42.667 0 23.561-19.102 42.667-42.667 42.667h-256zM213.844 64.823c0 23.565 19.103 42.667 42.667 42.667h256.002c23.561 0 42.667-19.102 42.667-42.667 0-23.561-19.106-42.667-42.667-42.667h-256.002c-23.564 0-42.667 19.106-42.667 42.667zM128 534.501c-23.564 0-42.667-19.101-42.667-42.665v-85.333c0-23.565 19.103-42.667 42.667-42.667s42.667 19.102 42.667 42.667v85.333c0 23.565-19.103 42.665-42.667 42.665zM837.513 704.186c0 23.564 19.102 42.667 42.667 42.667 23.561 0 42.667-19.102 42.667-42.667v-85.333c0-23.564-19.106-42.667-42.667-42.667-23.565 0-42.667 19.103-42.667 42.667v85.333zM880.845 320.495c-23.565 0-42.667-19.102-42.667-42.667v-85.333c0-23.565 19.102-42.667 42.667-42.667s42.667 19.102 42.667 42.667v85.333c0 23.565-19.102 42.667-42.667 42.667zM85.333 64.823c0 23.565 19.103 42.667 42.667 42.667s42.667-19.102 42.667-42.667c0-23.561-19.103-42.667-42.667-42.667s-42.667 19.106-42.667 42.667zM128.479 873.844c-23.564 0-42.667-19.102-42.667-42.667s19.103-42.667 42.667-42.667c23.564 0 42.667 19.103 42.667 42.667s-19.102 42.667-42.667 42.667z" />
<glyph unicode="&#xea12;" glyph-name="freebsd" d="M1012.281 942.791c54.282-54.256-96.199-292.761-121.639-318.2-25.44-25.402-90.055-2.031-144.324 52.238-54.282 54.256-77.665 118.884-52.225 144.324 25.44 25.452 263.919 175.92 318.188 121.639v0zM251.094 885.387c-82.87 47.020-200.776 99.322-238.288 61.81-38.020-37.995 16.211-158.567 63.714-241.589 42.273 73.514 102.432 135.4 174.575 179.779v0zM929.5 643.303c7.629-25.884 6.246-47.274-6.119-59.613-28.918-28.918-107.002 1.853-177.38 68.855-4.925 4.405-9.787 8.975-14.573 13.774-25.44 25.465-45.256 52.581-57.912 77.525-24.653 44.215-30.822 83.289-12.187 101.911 10.156 10.156 26.405 12.923 46.221 9.343 12.936 8.163 28.182 17.277 44.913 26.608-68.030 35.481-145.365 55.526-227.422 55.526-272.119 0-492.737-220.58-492.737-492.737 0-272.107 220.618-492.712 492.737-492.712 272.132 0 492.75 220.605 492.75 492.712 0 87.884-23.066 170.297-63.371 241.741-8.721-15.881-17.188-30.441-24.919-42.933v0z" />
<glyph unicode="&#xea16;" glyph-name="gatsbyjs" d="M512-64c-282.77 0-512 229.23-512 512s229.23 512 512 512c282.77 0 512-229.23 512-512s-229.23-512-512-512zM938.667 444.070h-275.269v-78.265h188.731c-27.527-117.432-114.065-215.273-228.077-254.44l-452.232 450.138c47.191 137.007 180.886 234.865 334.28 234.865 117.97 0 224.172-58.742 290.994-148.756l59.011 50.864c-78.692 105.753-204.508 176.191-350.004 176.191-204.49 0-377.514-144.834-420.766-336.644l519.054-516.689c188.731 46.976 334.28 219.212 334.28 422.771v-0.034zM85.333 448c0-110.625 43.455-217.274 126.424-300.243s193.594-126.424 300.243-126.424l-426.667 426.667z" />
<glyph unicode="&#xea17;" glyph-name="gem" d="M298.667 917.333h-17.673l-152.994-152.994v-632.679l152.994-152.994h462.012l152.994 152.994v632.679l-152.994 152.994h-444.339zM213.333 704v-512h42.667v512h-42.667zM341.333 64h341.333v42.667h-341.333v-42.667zM810.667 192v512h-42.667v-512h42.667zM682.667 832h-341.333v-42.667h341.333v42.667zM682.667 704v-512h-341.333v512h341.333z" />
<glyph unicode="&#xea19;" glyph-name="github" d="M511.957 917.333c-259.135 0-469.29-210.126-469.29-469.348 0-207.36 134.466-383.257 320.966-445.319 23.482-4.322 32.039 10.171 32.039 22.617 0 11.121-0.403 40.654-0.634 79.809-130.547-28.351-158.092 62.925-158.092 62.925-21.35 54.224-52.121 68.659-52.121 68.659-42.613 29.1 3.227 28.524 3.227 28.524 47.108-3.313 71.886-48.375 71.886-48.375 41.864-71.713 109.86-50.997 136.598-38.983 4.264 30.31 16.394 50.997 29.792 62.724-104.213 11.842-213.785 52.121-213.785 231.966 0 51.228 18.296 93.149 48.318 125.937-4.84 11.871-20.946 59.612 4.61 124.209 0 0 39.386 12.62 129.049-48.116 37.427 10.43 77.591 15.616 117.495 15.818 39.876-0.202 80.011-5.388 117.495-15.818 89.605 60.736 128.934 48.116 128.934 48.116 25.614-64.597 9.508-112.338 4.696-124.209 30.080-32.788 48.231-74.71 48.231-125.937 0-180.306-109.745-219.98-214.275-231.591 16.826-14.492 31.837-43.132 31.837-86.926 0-62.724-0.576-113.346-0.576-128.732 0-12.562 8.471-27.17 32.269-22.589 186.356 62.205 320.707 237.987 320.707 445.29 0 259.222-210.155 469.348-469.377 469.348z" />
<glyph unicode="&#xea1b;" d="M915.966 823.203c30.443-62.863-62.073-69.585-57.328-97.656 8.698-50.607 2.768-125.727-3.954-199.66-11.466-125.331 82.236-425.415-113.075-546.002-36.769-22.931-124.145-35.583-210.335-37.56 0 0-0.395 0-0.395 0s-0.395 0-0.395 0c-86.19 1.977-185.427 14.629-222.196 37.56-194.916 120.587-101.214 420.67-112.284 546.002-7.117 73.934-13.047 149.053-3.954 199.66 4.744 28.071-87.771 34.397-57.328 97.656 26.094 54.165 90.539 6.326 106.749 23.327 82.632 85.795 183.055 108.726 262.128 110.703 7.907 0 43.49 0 43.49 0 78.678-3.954 179.101-25.303 262.128-110.703 16.21-17.001 80.259 30.839 106.749-23.327zM487.784 494.653c-3.558-1.581-9.489-40.327 8.698-42.304 12.256-1.186 45.863-5.14 53.77 0 15.419 9.884 13.838 33.606 5.14 39.537-14.629 9.489-63.654 4.744-67.608 2.768zM387.361 784.853c-40.723 4.744-109.121-33.211-119.401-113.866-11.070-83.818 87.771-166.845 182.659-83.818 51.002 44.676 68.794 182.264-63.259 197.683zM662.536 784.853c-132.053-15.419-114.261-153.007-63.259-197.683 94.888-83.027 193.73 0 182.659 83.818-9.884 80.655-78.283 118.61-119.401 113.866z" />
<glyph unicode="&#xea1c;" d="M525.344 576.494c24.908 3.558 84.608-24.908 80.655-58.514-4.744-39.141-153.798-44.281-161.705 2.372-4.744 28.466 17.792 46.653 81.050 56.142zM861.801 261.387c-12.256 0.395-20.164 16.605-20.164 26.49 0 17.792 2.372 38.746 15.419 47.839 26.885 18.582 48.235-74.724 4.744-74.329zM188.491 261.387c-43.49-0.395-22.141 92.911 4.744 74.329 13.047-9.093 15.419-30.048 15.419-47.839 0-9.884-7.907-26.094-20.164-26.49zM779.169-25.254c7.907-11.466 8.303-19.373-4.349-25.303-48.235-22.141-91.33 7.512-75.12 15.815 34.397 17.396 55.747 44.676 79.469 9.489zM271.123-29.208c23.722 35.188 45.072 7.907 79.469-9.489 16.21-8.303-26.885-37.955-75.12-15.815-12.652 5.931-12.256 13.838-4.349 25.303z" />
<glyph unicode="&#xea1d;" d="M842.032 813.714c1.977 8.303 22.536 12.256 34.002-1.977 13.838-17.001-20.164-40.327-21.745-30.839-3.954 25.699-14.629 24.513-12.256 32.815zM208.259 813.714c2.372-8.303-8.303-7.117-12.256-32.815-1.581-9.489-35.583 13.838-21.745 30.839 11.070 14.233 31.629 10.28 34.002 1.977zM671.629 621.171c-24.892 0-45.072 20.179-45.072 45.072s20.179 45.072 45.072 45.072c24.892 0 45.072-20.179 45.072-45.072s-20.179-45.072-45.072-45.072zM659.768 671.382c7.861 0 14.233 6.372 14.233 14.233s-6.372 14.233-14.233 14.233c-7.861 0-14.233-6.372-14.233-14.233s6.372-14.233 14.233-14.233zM484.621 557.517c4.744 18.187 21.35 24.117 34.792 24.513 34.397 0.791 47.444-17.792 48.63-32.42 2.372-24.908-94.097-30.839-83.422 7.907zM378.663 621.171c-24.892 0-45.072 20.179-45.072 45.072s20.179 45.072 45.072 45.072c24.892 0 45.072-20.179 45.072-45.072s-20.179-45.072-45.072-45.072zM390.524 671.382c7.861 0 14.233 6.372 14.233 14.233s-6.372 14.233-14.233 14.233c-7.861 0-14.233-6.372-14.233-14.233s6.372-14.233 14.233-14.233z" />
<glyph unicode="&#xea1e;" d="M224.691 543.38c39.79 120.572 153.099 207.165 287.309 207.165 72.145 0 137.309-25.6 188.509-67.491l148.945 148.945c-90.764 79.127-207.127 128-337.455 128-201.81 0-375.563-115.127-459.094-283.734l171.785-132.886z" />
<glyph unicode="&#xea1f;" d="M684.404 191.463c-46.499-30.025-105.585-46.008-172.404-46.008-133.697 0-246.651 85.932-286.849 205.783l-172.353-130.863c83.427-168.902 257.175-284.374 459.202-284.374 125.134 0 244.708 44.485 334.259 128.018l-161.855 127.445z" />
<glyph unicode="&#xea20;" d="M846.259 64.018c93.652 87.359 154.468 217.426 154.468 383.982 0 30.255-4.655 62.836-11.636 93.091h-477.091v-197.818h274.618c-13.551-66.521-49.923-118.044-102.214-151.81l161.855-127.445z" />
<glyph unicode="&#xea21;" d="M225.151 351.237c-10.183 30.36-15.697 62.896-15.697 96.763 0 33.353 5.348 65.416 15.237 95.38l-171.785 132.886c-34.279-68.711-52.906-146.149-52.906-228.266 0-81.901 18.977-159.154 52.798-227.626l172.353 130.863z" />
<glyph unicode="&#xea22;" d="M539.52 348.16l253.312 438.827 137.984-79.659c56.072-32.809 93.138-92.738 93.138-161.324 0-34.293-9.267-66.422-25.433-94.020l0.476 0.879-142.677-247.083c-20.539-35.047-58.018-58.21-100.906-58.21-21.407 0-41.467 5.771-58.708 15.841l0.553-0.298-128.085 73.899c-24.433 14.365-40.573 40.523-40.573 70.45 0 15 4.055 29.053 11.128 41.123l-0.208-0.384z" />
<glyph unicode="&#xea23;" d="M512.512 652.8l-315.179-545.749 138.027-79.659c26.715-15.68 58.839-24.941 93.125-24.941 68.587 0 128.518 37.058 160.863 92.244l0.476 0.879 204.416 354.048c9.813 16.704 15.608 36.792 15.608 58.234 0 42.894-23.194 80.371-57.724 100.573l-0.551 0.298-128.085 73.899c-11.655 6.853-25.672 10.9-40.635 10.9-29.912 0-56.046-16.175-70.133-40.255l-0.208-0.384z" />
<glyph unicode="&#xea24;" d="M792.832 787.072l-97.707 56.32c-33.389 19.607-73.539 31.188-116.394 31.188-85.71 0-160.601-46.321-201.006-115.294l-0.595-1.099-181.163-313.685c-9.801-16.696-15.59-36.773-15.59-58.202 0-42.886 23.186-80.357 57.706-100.562l0.55-0.298 97.664-56.32c16.696-9.801 36.773-15.59 58.202-15.59 42.886 0 80.357 23.186 100.562 57.706l0.298 0.55 216.277 374.571c28.629 48.938 80.93 81.289 140.786 81.289 29.949 0 58.007-8.099 82.103-22.227l-0.766 0.415-140.885 81.237z" />
<glyph unicode="&#xea25;" d="M405.163 666.24l-107.733 62.080c-14.4 8.434-31.709 13.415-50.182 13.415-36.956 0-69.257-19.935-86.735-49.637l-0.256-0.471-129.323-223.317c-19.412-32.987-30.879-72.666-30.879-115.024 0-84.723 45.874-158.732 114.139-198.543l1.092-0.588 224.725-129.408c-47.335 32.16-78.022 85.747-78.022 146.502 0 32.63 8.852 63.193 24.286 89.418l-0.45-0.827 33.536 57.813 122.539 211.797c8.478 14.377 13.486 31.676 13.486 50.145 0 36.886-19.978 69.107-49.704 86.431l-0.476 0.256z" />
<glyph unicode="&#xea26;" d="M474.795 447.872l-428.288-427.008c14.246-49.378 59.033-84.883 112.112-84.883 21.554 0 41.74 5.854 59.056 16.059l-0.544-0.297 481.707 272.085-224.043 224z" />
<glyph unicode="&#xea27;" d="M910.421 547.413l-209.024 119.723-226.603-219.307 224.043-224 210.944 122.24c36.506 19.394 60.943 57.179 60.943 100.672s-24.437 81.278-60.33 100.374l-0.614 0.298h0.64z" />
<glyph unicode="&#xea28;" d="M46.507 874.88c-2.56-9.6-3.883-19.499-3.84-29.44v-795.093c0-9.941 1.28-19.84 3.84-29.44l428.288 426.965-428.288 427.008z" />
<glyph unicode="&#xea29;" d="M474.795 447.872l226.603 219.264-482.688 276.523c-17.141 10.214-37.786 16.277-59.843 16.341h-0.018c-0.073 0-0.16 0-0.246 0-53.057 0-97.829-35.474-111.891-83.999l-0.204-0.823 428.288-427.307z" />
<glyph unicode="&#xea2a;" glyph-name="google-plus" d="M0.864 481.994c2.8 166.67 156.834 312.628 324.383 307.068 80.282 3.711 155.749-31.039 217.237-79.85-26.244-29.663-53.418-58.236-82.452-84.959-73.918 50.815-179.038 65.338-252.956 6.639-105.74-72.748-110.555-244.516-8.844-322.824 98.911-89.286 285.863-44.957 313.192 91.753-61.952 0.925-124.070 0-186.023 2.004-0.155 36.765-0.31 73.53-0.155 110.284 103.571 0.308 207.142 0.473 310.868-0.308 6.21-86.5-5.28-178.561-58.698-250.076-80.902-113.224-243.315-146.278-370.031-97.775-127.17 48.194-217.237 181.81-206.522 318.046zM838.132 604.951h92.391c0.155-30.742 0.31-61.638 0.62-92.369 30.904-0.319 61.963-0.319 92.856-0.628v-91.907c-30.893-0.308-61.797-0.462-92.856-0.771-0.31-30.885-0.465-61.627-0.62-92.369h-92.546c-0.31 30.742-0.31 61.484-0.62 92.215-30.904 0.308-61.952 0.617-92.856 0.925v91.907c30.904 0.308 61.797 0.462 92.856 0.628 0.155 30.885 0.465 61.627 0.775 92.369z" />
<glyph unicode="&#xea2b;" glyph-name="google-wallet" d="M524.833 97.858c-18.718-30.83-51.2-48.998-86.985-48.998-9.91 0-19.819 1.652-29.178 4.404-7.708 2.753-15.966 6.056-23.123 10.46-28.628 17.617-45.695 46.796-48.447 77.626-0.4 4.399-0.542 8.863-0.402 13.344-14.561 162.138-104.91 301.22-242.936 375.335-46.796 24.774-64.963 83.682-39.639 130.477 17.067 31.931 49.548 51.2 85.333 51.2 15.966 0 31.931-3.854 45.695-11.561 91.514-48.771 172.119-118.815 230.414-198.729-7.912 65.839-28.757 129.991-63.601 186.067-16.516 27.527-18.168 61.11-8.258 86.985 4.955 13.213 11.561 25.325 23.123 37.437s24.224 18.718 36.335 23.673c11.561 4.404 19.819 6.606 36.335 6.606 19.819 0 39.088-6.056 55.054-16.516 1.475-0.901 2.913-1.839 4.316-2.813-1.563 1.712-4.316 3.364-4.316 3.364 118.731-72.558 219.899-172.557 289.806-284.105-10.262 91.516-35.478 180.13-75.647 265.387-25.325 52.852-2.753 116.714 50.649 142.039 14.314 7.157 29.729 10.46 45.695 10.46 40.74 0 78.727-24.224 96.344-61.11 33.032-69.368 58.357-142.039 75.424-216.912 17.067-75.974 26.426-155.802 26.976-235.080 0-80.378-9.359-158.555-26.426-235.080-4.404-20.37-9.359-39.639-15.415-60.009-18.718-67.716-40.189-120.017-61.66-160.206-18.718-34.133-54.503-55.604-93.591-55.604-15.966 0-31.381 3.854-45.695 10.46-31.931 14.865-51.2 42.391-58.357 72.671-2.202 8.809-2.753 18.168-2.753 24.774 0 23.123-1.101 38.538-1.101 38.538 0 114.98-27.487 224.462-78.067 320.756-7.266-108.799-39.748-213.401-95.903-305.341z" />
<glyph unicode="&#xea2c;" glyph-name="graph-ql" d="M611.563 838.312l200.967-116.032c6.079 6.351 13.145 11.967 21.135 16.609 45.503 26.157 103.539 10.626 129.968-34.876 26.157-45.503 10.626-103.539-34.876-129.968-9.914-5.699-20.435-9.419-31.1-11.281v-229.537c10.53-1.881 20.914-5.578 30.706-11.206 45.732-26.405 61.248-84.386 34.843-129.845-26.132-45.459-84.386-60.975-129.845-34.843-11.279 6.484-20.715 14.945-28.129 24.697l-197.35-113.943c4.785-11.36 7.428-23.85 7.428-36.967 0-52.329-42.518-95.119-95.119-95.119s-95.119 42.518-95.119 95.119c0 10.366 1.651 20.34 4.705 29.675l-199.613 115.25c-6.533-7.289-14.309-13.694-23.24-18.881-45.775-26.157-103.811-10.626-129.968 34.876s-10.626 103.539 34.876 129.968c6.928 3.983 14.147 6.999 21.501 9.090v233.787c-7.447 2.094-14.755 5.132-21.76 9.159-45.503 26.157-61.033 84.466-34.876 129.968s84.466 61.033 129.968 34.876c6.486-3.768 12.364-8.177 17.598-13.101l203.291 117.374c-1.624 6.974-2.482 14.245-2.482 21.72 0 52.602 42.518 95.119 95.119 95.119s95.119-42.518 95.119-95.119c0-9.225-1.308-18.139-3.748-26.569zM590.53 800.793c-2.122-2.328-4.358-4.55-6.699-6.657l267.9-464.002c0.968 0.31 1.941 0.605 2.918 0.884v234.113c-22.78 6.596-43.128 21.643-55.859 43.789-13.868 24.124-16.018 51.771-8.196 76.363l-200.063 115.51zM450.615 799.966c-1.374 1.473-2.703 2.989-3.982 4.547l-198.497-114.606c9.649-25.708 8.15-55.339-6.594-80.988-14.449-25.135-38.707-41.124-65.199-45.994v-229.77c1.422-0.259 2.839-0.551 4.247-0.874l270.025 467.684zM546.175 773.341c-8.256-2.333-16.972-3.58-25.983-3.58-11.908 0-23.299 2.179-33.797 6.16l-267.038-462.511c8.772-7.114 16.428-15.92 22.445-26.279 3.983-6.928 6.999-14.147 9.090-21.501h538.532c2.090 7.374 5.108 14.609 9.096 21.546 4.537 7.892 10.042 14.882 16.28 20.908l-268.624 465.256zM586.66 99.212l202.186 116.736c-0.567 2.206-1.055 4.432-1.463 6.674h-534.433c-0.545-2.992-1.233-5.956-2.060-8.881l201.198-116.165c17.265 17.692 41.384 28.663 68.104 28.663 25.887 0 49.332-10.297 66.468-27.027z" />
<glyph unicode="&#xea32;" glyph-name="hadoop" d="M964.901 596.711c-6.915-27.357-20.883-50.625-49.815-60.929-14.184-5.050-23.35 0.146-37.816 4.316 14.2-1.351 22.366-3.533 35.082 2.761 23.74 11.739 41.232 30.92 52.549 53.851v0zM1022.708 416.874c-3.375-33.159-12.226-65.372-27.991-92.675-14.118-24.484-33.792-45.066-59.999-59.099-17.809-9.468-38.501-14.951-59.893-17.192-22.207-2.309-45.132-1.074-66.524 2.557-1-3.314-2.034-6.683-3.018-9.975-1.25-4.14-2.517-8.308-3.767-12.424-4.367-14.35-14.799-27.283-27.798-36.866-13.416-9.899-29.774-16.366-45.026-17.051-14.568-0.707-25.826 2.725-35.808 8.619-9.667 5.683-17.933 13.591-26.951 22.3l-11.815 11.366c-2.649 2.583-5.3 5.158-7.982 7.717-0.285-1.858-0.549-3.633-0.834-5.256 4.166-8.426 7.116-16.326 10.116-24.426v-0.024c1.892-5.058 3.833-10.258 6.176-15.893 3.491-8.332 6.126-15.284 7.96-22.492 1.832-7.276 2.842-14.675 3.066-23.742 0.214-7.725 0.425-15.434 0.639-23.143 0.192-7.274 0.377-14.55 0.609-21.825 3.216-5.833 5.118-9.833 6.066-14.25 1.066-4.709 0.96-9.3 0.417-16.783-1.182-16.819-6.741-26.191-16.081-31.509-8.767-4.968-20.376-5.709-34.734-5.641-2.184 0.034-5.723 0.034-10.018 0.034-13.931 0-35.481-0.034-42.074 0.433-8.857 0.641-16.226 1.317-22.408 2.799-4.767 1.132-8.685 2.785-11.959 5.184-4.759-3.841-8.941-7.316-13.144-10.775-12.37-10.192-24.927-20.576-29.985-23.941-1.938-2.984-3.691-5.992-5.3-8.785-5.192-9.1-9.034-15.831-21.276-22.474-24.043-12.983-42.649-11.851-58.971-1.834-15.55 9.543-28.395 27.075-41.826 47.791-6.388 9.833-16.588 26.033-21.554 41.918-5.491 17.582-4.729 34.684 12.787 43.683 0.834 0.433 1.679 0.868 2.471 1.285 1.826 0.95 3.547 1.816 5.266 2.701-6.639-0.351-13.312-0.619-19.951-0.535-13.033 0.084-26.129 0.982-39.483 2.701 0.216-1.593 0.401-2.868 0.503-3.693 1.022-8.857 1.729-14.657 0.888-20.466-0.846-5.992-3.224-11.324-8.288-18.875-0.337-0.501-1.471-2.142-2.441-3.517-4.695-6.917-7.471-11.034-13.929-25.325 0.637-7.044 0.846-12.709 0.379-18.35-0.513-6.076-1.791-12.258-3.954-20.342-5.513-20.384-26.009-25.083-48.717-23.658-20.837 1.299-43.649 7.857-56.829 11.44-2.862 0.759-5.182 1.361-7.437 1.952-11.122 2.9-23.105 6.034-33.191 10.617-20.195 9.218-33.139 23.682-20.534 51.376 2.030 4.391 3.799 8.857 5.409 13.358 0.617 1.599 1.022 3.132 1.545 4.731-10.282-1.599-21.205 0.351-31.842 4.393-18.608 7.074-36.391 20.59-47.27 31.473-8.699 8.719-15.466 18.099-20.53 27.734-5.479 10.434-8.984 21.249-10.767 31.9-2.938 17.432-0.888 19.416 9.416 29.309 1.537 1.507 3.258 3.148 3.679 3.557 5.092 5.034 10.15 10.082 15.23 15.091 5.421 5.374 10.903 10.791 16.304 16.192 2.483 6.717 4.954 13.416 7.445 20.191 1.601 4.324 3.188 8.683 4.771 12.989-0.761 4.018-1.451 8.058-2.030 12.192-0.669 4.825-1.196 9.258-1.545 13.258-1.567 18.424-2.092 34.269-1.545 48.617 0.413 10.943 1.433 21.009 3.112 30.642-8.509-1.896-17.176-1.749-25.029 0.741-9.705 3.134-18.175 9.833-23.422 20.847-1.966 4.042-3.513 8.13-4.976 12.745-1.287 4.072-2.475 8.617-3.749 13.767-6.96 7.17-10.903 14.695-12.212 22.4-1.555 8.843 0.236 17.662 4.196 26.113 3.791 8.122 9.613 15.847 16.35 22.855 18.145 18.847 43.938 33.012 55.941 35.096l9.004 1.575-2.996-8.625c-1.557-4.367-3.379-8.941-5.14-13.444-0.497-1.309-1-2.629-1.545-4.050 5.521-4.367 8.829-10.424 10.374-17.32 2.413-10.663 0.854-22.947-1.204-32.139l-2.455-11.003-6.974 8.821c-1.687 2.080-3.092 4.246-4.443 6.346-1.246 1.918-2.429 3.721-3.637 5.204-0.96-14.314-2.701-28.668-12.901-38.453 0.289-1.23 0.425-1.888 0.629-2.030 0.162-0.084 1.896 0.862 6.080 2.491 7.182 2.741 13.57 7.316 19.58 12.695 6.178 5.563 11.829 11.913 17.546 18.198 6.463 12.55 13.859 24.422 22.496 35.712 8.779 11.52 18.827 22.412 30.425 32.688 28.387 25.141 56.003 41.884 87.35 54.013 30.684 11.857 64.891 19.33 106.913 26.067 5.288 5.483 10.655 10.913 16.158 16.284 5.904 5.667 12.003 11.334 18.392 16.999 8.976 7.891 16.476 12.717 23.937 15.703 6.737 2.741 13.384 3.813 20.855 4.359 12.829 17.103 24.526 31.778 38.287 44.491 14.408 13.324 30.954 24.414 53.232 33.78 46.14 19.462 85.258 29.6 122.259 27.275 37.267-2.331 72.133-17.25 109.5-48.080 7.052-5.825 14.234-12.118 21.392-18.404 15.659-13.767 31.025-27.247 49.076-38.537 6.799-4.212 12.55-7.871 18.234-12.18 5.617-4.288 10.801-9.080 16.2-15.454 6.525-7.811 12.482-15.612 17.709-23.967 4.391-6.98 8.224-14.388 11.609-22.516 7.649 3.084 15.749 6.483 22.233 11.963 5.601 4.803 10.266 11.625 14.917 18.424 4.166 6.122 8.348 12.188 13.316 17.188 1.619 1.679 3.467 3.050 5.469 4.058 7.617 4.022 17.258 3.359 26.383 0.208 8.617-2.95 16.933-8.192 22.584-13.767 2.599-2.539 4.683-5.258 6.050-7.895 11.35-21.7 19.516-51.871 24.45-82.924 5.499-34.874 6.998-71.009 4.322-97.582v0zM863.786 559.707c-1.649-0.042-3.266-0.084-4.833-0.142 2.351-2.309 4.192-5.050 5.543-8.080 0.665 0.637 1.425 1.254 2.24 1.812-0.968 2.164-1.95 4.31-2.95 6.411v0zM63.963 462.768c4.196 0.471 6.805-1.733 10.052-4.966-0.587 7.745-2.054 13.494-7.493 16.691-0.391-1.258-0.699-2.525-1.062-3.803-0.701-2.491-1.134-5.14-1.497-7.921v0zM80.638 378.253c0.393 1.393 0.804 2.763 1.254 4.164 2.637 8.324 5.463 16.404 8.493 24.237-6.338-5.729-13.466-10.591-22.113-14.053-22.36-8.945-21.905-1.216-31.53 18.196 20.462 16.342 10.991 36.413 17.504 58.971 1.517 5.184 3.713 10.25 6.821 16.929-21.43-12.901-60.813-48.933-34.495-76.241 2.854-10.304 5.058-18.322 8.976-26.47 8.056-16.829 29.099-12.512 45.090-5.733v0zM139.884 105.258c-22.877 34.624-43.543 75.842-55.671 117.758-2.238-6.008-4.483-11.967-6.709-17.967-10.254-10.348-20.504-20.732-30.758-31.123-7.597-7.709-9.080-7.976-7.543-18.867 2.072-14.951 10.893-30.842 24.071-44.292 12.054-12.31 53.663-44.417 70.025-22.534 3.483 4.667 5.122 10.434 6.585 16.384v0.641zM642.653 170.8c-3.617 8.599-5.617 16.665-8.134 24.808-5.443-19.468-12.785-37.792-19.45-58.859-6.316-19.933-38.768-77.734-57.833-91.783 3.715-2.767 10.533-3.833 22.682-4.886 8.601-0.731 42.459-0.932 50.992-1.056 18.733-0.343 25.842 1.082 27.742 22.4 0.916 10.458 0.082 12.4-5.136 21.558-0.449 16.318-0.898 32.668-1.349 48.984-0.473 15.458-3.447 24.4-9.515 38.834v0zM979.27 581.407c-4.359 10.555-21.785 26.371-32.852 15.62-11.166-10.879-19.566-26.191-31.732-35.816-16.582-13.033-45.1-8.551-39.934-36.251 3.775-20.175 4.849-42.757 0.533-61.554-4.116-18.053-8.398-43.709-17.817-55.795 2.783 10.228 7.467 36.97 8.775 55.011 0.709 9.871-0.399 21.785-2.242 33.774-2.082-0.042-4.156-0.090-6.282-0.154-7.601-0.154-19.985-11.054-23.317-17.855-9.3-18.941-9.933-36.541-20.35-54.57 8.384 20.153 3.667 38.329 11.324 59.945 2.693 7.625 9.535 14.2 17.442 18.202-4.401 0.657-8.801-1.266-15.302-2.783-27.816-6.617-26.566-28.48-43.673-49.358 16.49 30.255 8.074 50.316 43.832 58.478 11.767 2.667 20.358 3.737 28.093-2.445 0.166 0 0.335 0 0.483 0.034 2.034 0.154 4.050 0.321 6.1 0.463-1.016 5.553-2.1 11.024-3.182 16.18-16.35 2.142-31.417 1.687-48.184-0.846 3.625 1.575 7.15 3.030 10.567 4.266 5.332 1.958 10.517 3.505 15.673 4.387 0.509 1.020 0.808 2.146 0.952 3.359 0.533 5.649-3.649 10.695-9.292 11.254-5.667 0.537-10.482-3.629-11.034-9.296-0.2-2.224 0.583-4.884 1.834-7.088-0.277 0.497-0.543 0.988-0.786 1.513l-0.024 0.034c-2.158 4.162-3.142 8.963-2.701 13.941 0.391 3.757 1.565 7.222 3.359 10.292-0.549-0.132-1.1-0.309-1.649-0.503-3.974-1.595-12.45-1.084-16.284 0.228 7.517 1.246 18.717 5.242 25.951 8.767 0.2 0.084 0.391 0.166 0.549 0.267 4.517 2.783 9.931 4.154 15.582 3.629 2.868-0.287 5.565-1.028 8.034-2.204 3.367-0.992 7.134-2.331 11.665-3.96-6.883 14.384-14.657 27.387-24.015 40.433-8.849 12.314-16.284 16.566-29.367 24.295-2.85 1.691-5.633 3.381-8.382 5.154-9.667 1.771-20.45 3.513-29.752 1.741 7.667 3.016 13.434 4.232 20.151 4.787-18.516 13.276-34.491 28.175-52.767 43.545-70.524 59.3-127.591 55.087-217.398 16.095-36.445-15.867-49.491-31.82-71.912-60.526 0.196 0 0.433 0.020 0.701 0.020 22.802 0.575 45.475 1.359 68.916 3.563-24.245-5.645-47.429-10.158-71.233-13.763-26.267-4.008-34.333-3.341-54.146-22.622-36.509-35.517-67.091-75.662-100.508-111.682-19.338-20.875-28.955-41.796-40.309-65.576-11.262-23.658-9.703-32.62 5.409-53.066 15.438-20.929 24.77-30.395 31.315-48.978 17.071 26.349 37.637 48.196 59.322 74.387-17.705-28.375-33.85-55.188-48.483-84.038-9.116-17.951-13.593-27.099-13.3-46.952 17.111-19.716 27.842-30.233 43.729-34.6 17.113-4.701 33.241-3.918 48.709 4.1 38.483 19.915 75.062 45.9 117.774 49.174 22.049 39.299 15.855 88.717 7.941 133.416-6.555 37.146-4.892 69.904 3.958 107.163 2.216-36.187 5.112-69.788 12.29-105.265 10.458-51.971 12.659-96.837-9.198-150.538-47.204-1.132-85.946-28.79-127.811-50.2-18.825-9.635-36.433-10.601-57.496-5.591-21.474 5.108-37.938 21.674-60.033 45.868 2.166 18.292 4.553 29.658 11.066 43.090-7.879 23.734-17.65 34.65-35.712 58.925-20.947 28.141-21.308 40.333-5.463 72.379 11.42 23.233 22.125 44.667 40.188 65.863 17.783 20.999 34.137 40.545 50.667 59.021-68.7-10.428-112.554-26.995-159.475-68.149-34.788-30.542-56.486-68.464-71.966-112.255-9.809-27.634-12.559-55.474-7.933-100.648 5.946-58.226 36.866-123.918 70.163-171.833-4.062-29.834-9.328-52.31-17.654-73.634-9.438-24.183 28.121-31.584 46.266-36.549 14.735-4.042 70.696-19.4 76.229 0.433 3.296 11.885 3.296 20.183 2.471 32.718 9.975 19.891 13.005 22.55 20.125 34.315 7.617 12.593 8.254 17.618 8.316 32.409 0.030 19.075-0.463 53.142 0.341 65.458 2.583-11.015 5.655-26.349 8.2-41.066 39.776-7.116 79.251-6.599 119 1.517 0.505 2.775 1.425 5.801 2.455 9.517 2.657 9.302 7.996 18.6 10.683 27.918-0.751-9.176-1.451-18.326-2.196-27.476-0.741-9.442-0.772-17.059 0.391-26.476 0.641-5.182 1.301-10.35 1.918-15.524-2.876 4.741-7.354 9.292-9.971 14.059-17.705-11.649-27.442-18.244-44.825-27.418-18.364-9.717 2.699-44.483 10.282-56.568 16.671-26.458 36.579-57.823 67.546-41.441 10.158 5.358 16.103 17.791 22.883 26.742 9.088 5.348 57.336 46.024 65.003 50.458 10.817 6.208 49.793 70.067 54.733 85.992 10.899 35.267 23.7 62.107 27.317 98.899-24.816 10.434-36.882 22.025-54.667 42.934 25.001-18.532 46.583-28.439 73.533-36.974 9.823-8.657 19.735-17.41 30.041-26.584 14.941-13.308 28.66-26.874 50.324-27.265 23.434-0.401 49.933 17.516 56.751 39.734 2.617 8.541 5.256 17.107 7.865 25.658-4.633 1.118-9.182 2.367-13.566 3.709-4.859-11.683-4.475-16.21-6.767-24.792-3.95-14.683-24.159-24.875-45.332-19.765-7.527 1.816-11.951 2.866-14.635 4.799 2.118-5.783 6.266-10.709 13.967-12.116 8.535-1.583 14.833-2.268 27.233 0.549-15.332-7.952-20.266-8.292-31.133-5.867-28.592 6.35-18.524 40.784-12.292 61.841 3.916 13.258 2.591 27.325-0.377 40.609 10.833-6.849 19.416-12.883 31.742-17.051 57.741-19.45 126.258-39.275 184.376-6.807 45.583 25.442 70.576 81.868 76.191 133.555 5.004 46.078-3.629 117.956-22.512 163.645v0zM684.52 303.966c-1.134-7.176-2.675-16.033-3.809-23.209 3.050 8.1 6.675 17.476 10.202 25.209 3.741 8.174 5.831 8.915 13.725 13.234 5.635 3.066 15.833 7.266 21.442 10.3-5.775-0.966-16.133-3.074-21.885-4.050-15.426-2.609-17.26-6.3-19.674-21.484v0zM420.924 579.922c-17.887-17.721-35.271-78.475-40.826-102.771 8.729 20.217 30.658 76.662 47.451 91.034 4.637 3.98 7.903 6.421 11.358 8.196-12.023-20.199-11.15-25.203-6.926-52.226 3.583 27.472 13.116 38.108 28.686 58.578 17.091 4.32 33.125 9.43 50.641 16.272-19.783-2.246-39.503-4.274-59.322-6.142-16.594-1.565-19.274-1.329-31.063-12.941v0zM718.020 512.545c-3.841 8.070-10.591 13.849-18.4 16.697 7.108 3.833 14.049 7.787 19.498 12.725-15.933-7.38-34.465-5.567-48.1-14.817-12.084-8.1-28.69-33.884-40.916-44.783 8.849 3.433 17.382 9.38 25.233 15.62 0.058-4.637 1.1-9.374 3.184-13.847 2.182-4.557 5.348-8.308 9.034-11.274-1.050 1.050-1.96 2.246-2.633 3.637-3.266 6.833-0.351 15.053 6.483 18.288 6.849 3.298 15.107 0.375 18.374-6.451 0.293-0.659 0.575-1.317 0.759-1.976-6.551-4.888-12.55-10.597-17.568-17.208-4.383-5.769-8.050-12.282-10.665-19.496 23.283 27.612 57.059 48.501 88.815 57.392-8.883 0.104-19.4-1.563-30.101-5.046-0.383 3.533-1.357 7.108-2.998 10.539v0zM604.286 537.431c5.358 23.716 14.885 46.575 51.733 64.275-48.833-12.23-57.999-32.738-51.733-64.275v0z" />
<glyph unicode="&#xea36;" glyph-name="help-option" d="M85.333 661.333c0 117.821 95.513 213.333 213.333 213.333h426.667c117.82 0 213.333-95.513 213.333-213.333v-426.667c0-117.82-95.514-213.333-213.333-213.333h-426.667c-117.821 0-213.333 95.514-213.333 213.333v426.667zM298.667 789.333c-70.692 0-128-57.308-128-128v-426.667c0-70.694 57.308-128 128-128h426.667c70.694 0 128 57.306 128 128v426.667c0 70.692-57.306 128-128 128h-426.667zM512 640c-61.769 0-85.333-44.898-85.333-64 0-23.564-19.103-42.667-42.667-42.667s-42.667 19.102-42.667 42.667c0 66.231 61.769 149.333 170.667 149.333 49.31 0 92.595-12.327 124.096-39.89 32.247-28.216 46.571-67.523 46.571-109.443 0-50.667-13.035-86.524-37.641-113.822-11.418-12.663-24.060-22.046-35.337-29.572-5.325-3.558-10.756-6.963-15.671-10.044l-0.768-0.482c-5.291-3.319-10.091-6.34-14.797-9.502-14.993-10.069-21.043-17.574-23.526-22.447-1.903-3.725-3.264-8.751-1.173-18.684 4.847-23.061-9.916-45.687-32.973-50.534-23.061-4.847-45.687 9.916-50.534 32.973-5.385 25.617-3.558 51.072 8.674 75.034 11.639 22.818 30.665 40.201 51.959 54.502 5.961 4.002 11.827 7.689 17.037 10.953l0.393 0.247c5.218 3.273 9.715 6.089 13.999 8.951 8.725 5.824 14.75 10.654 19.332 15.74 7.394 8.205 15.693 22.019 15.693 56.687 0 22.079-7.010 36.106-17.429 45.223-11.166 9.77-31.881 18.777-67.904 18.777zM512 286.669c-23.565 0-42.667-19.106-42.667-42.667 0-23.565 19.102-42.667 42.667-42.667s42.667 19.102 42.667 42.667c0 23.561-19.102 42.667-42.667 42.667z" />
<glyph unicode="&#xea37;" glyph-name="heroku" d="M872.216 960h-737.317c-50.883 0-92.232-41.236-92.232-92.232v-839.621c0-50.911 41.349-92.147 92.232-92.147h737.317c50.897 0 92.119 41.236 92.119 92.147v839.621c0 50.996-41.222 92.232-92.119 92.232v0zM913.126 28.147c0-22.608-18.316-40.91-40.91-40.91h-737.317c-22.58 0-41.023 18.302-41.023 40.91v839.621c0 22.693 18.444 41.023 41.023 41.023h737.317c22.594 0 40.91-18.33 40.91-41.023v-839.621zM273.082 89.542l115.279 102.445-115.279 102.417v-204.862zM689.397 504.649c-20.724 20.838-58.56 45.726-121.838 45.726-69.425 0-140.933-18.089-192.042-34.649v290.621h-102.431v-444.048l72.386 32.793c1.204 0.538 117.9 52.852 222.088 52.852 51.973 0 63.49-28.614 64.043-52.526v-305.877h102.318v307.194c0.113 6.573-0.538 63.391-44.522 107.913zM554.722 639.983h102.431c46.279 52.427 69.865 108.239 76.777 166.375h-102.332c-11.403-58.022-36.632-113.509-76.876-166.375z" />
<glyph unicode="&#xea3d;" glyph-name="horton" d="M98.163 406.324h-6.716c-13.605-42.193-32.205-83.525-39.782-126.751-9.472-55.109-10.161-111.941-14.466-167.911-1.206-14.466 5.339-22.044 19.805-22.216 65.098-0.861 57.693-3.444 68.37 51.148 0.689 3.789 1.206 7.578 2.411 11.366 22.216 70.781 23.249 140.184-11.539 208.038-7.578 14.638-12.055 30.827-18.083 46.326v0zM806.663 658.965c0 11.883-9.644 21.355-21.355 21.355-11.883 0-21.355-9.472-21.355-21.355 0-11.711 9.472-21.355 21.355-21.355 11.711 0 21.355 9.644 21.355 21.355v0zM899.487 542.202c8.783-18.772 6.544-43.571 6.372-65.615-0.172-39.438-2.411-78.875-4.133-118.313-1.55-39.093-3.272-78.186-5.339-124.685-24.627 15.155-44.26 25.832-62.17 38.749-6.028 4.305-10.333 14.294-10.85 22.044-4.133 46.843-8.266 93.858-9.644 140.873-0.689 29.621-8.611 51.493-39.438 59.931-16.361 4.305-24.799 15.672-30.999 31.343-26.177 65.098-53.387 130.024-82.32 199.943 49.598-9.127 95.408-16.533 140.701-26.349 8.094-1.722 16.016-11.883 20.838-20.149 26.521-45.465 54.42-90.242 76.981-137.773v0zM923.77 233.935c0-0.689 0.689-1.206 1.722-3.444 32.893-2.411 68.887-14.983 92.653 30.655-15.499 4.478-29.277 8.611-43.054 12.227-51.321 13.433-51.321 13.433-51.321-39.438v0zM654.94 370.675c-4.133 14.811-11.539 21.183-26.866 23.421-18.599 2.928-39.782 4.994-54.248 15.327-63.892 46.326-125.546 95.752-188.749 143.112-17.049 12.916-21.183 26.349-14.122 46.154 10.505 29.621 19.46 59.759 30.655 94.202-9.644-1.033-14.122-1.206-18.427-2.067-55.798-12.4-111.080-27.555-167.567-36.682-36.682-6.028-58.898-24.627-81.114-53.387-53.904-69.748-95.236-143.801-110.391-231.631-5.511-32.205-15.844-63.548-24.11-95.236 2.583-1.722 5.339-3.444 7.922-5.166 5.339 6.2 12.916 11.539 15.672 18.599 17.222 46.498 33.238 93.341 50.115 139.84 8.783 24.11 16.533 26.005 32.549 5.511 10.333-13.088 19.805-28.071 25.316-43.571 29.449-83.181 57.693-166.706 86.453-250.059 17.394-50.804 17.566-49.943 71.814-50.115 20.494 0 27.899 7.233 26.177 27.21-3.617 43.226-5.855 86.453-9.816 129.507-1.894 22.044 7.922 32.205 28.244 37.715 50.115 13.433 99.886 27.899 149.656 42.193 31.343 8.783 34.443 7.75 49.943-20.149 32.549-58.037 66.648-115.385 96.441-174.972 16.188-32.721 37.715-45.293 73.192-41.504 26.005 2.755 28.071 3.1 21.010 29.105-23.249 84.214-47.015 168.428-69.748 252.642v0zM649.946 692.375c-16.188 44.432-39.61 68.714-87.658 73.364-30.655 2.928-60.448 15.327-90.758 23.594h-9.3c-4.133-9.127-9.127-17.911-12.227-27.21-17.394-52.182-33.582-104.708-51.493-156.545-6.716-19.288-2.411-31.688 13.95-43.571 45.293-33.582 90.758-67.337 134.329-103.33 69.748-42.193 95.58-42.193 126.924-42.021s56.315 0 87.83 0c-3.961 11.194-6.372 19.116-9.472 26.694-34.443 82.836-71.642 164.639-102.124 249.025v0zM488.406 300.755c-12.227-1.55-28.071-2.239-29.105-22.905-2.239-46.154-6.372-92.308-9.989-143.112 0.861-10.677-3.1-33.238 4.822-38.921 11.711-8.094 32.377-6.544 48.565-4.305 6.544 0.861 14.466 13.088 16.705 21.699 6.028 22.216 6.544 46.154 13.95 67.853 13.605 40.299 5.166 75.775-19.288 107.98-5.166 6.889-17.566 12.744-25.66 11.711v0zM1024 289.044c-3.961 24.11-6.2 46.154-11.711 67.337-1.378 5.339-12.4 10.161-19.633 11.022-4.65 0.689-13.605-4.822-15.327-9.472-12.227-32.032 8.094-64.237 46.671-68.887v0z" />
<glyph unicode="&#xea40;" glyph-name="hp" d="M359.297 959.993l-145.964-645.413h91.229l145.957 645.413h-91.222zM743.009 581.413l-63.855-265.594h91.222l63.855 265.594h-91.222zM587.925 581.413l-145.957-645.413h91.222l145.964 645.413h-91.229zM432.28 581.413l-63.862-265.594h91.222l63.855 265.594h-91.216z" />
<glyph unicode="&#xea41;" glyph-name="hpe" horiz-adv-x="2048" d="M85.333 704v-512h1877.333v512h-1877.333zM213.333 576h1621.333v-256h-1621.333v256z" />
<glyph unicode="&#xea43;" glyph-name="hpi" d="M673.828 305.776c7.851 0 16.327 6.053 18.865 13.443l93.697 271.784c2.554 7.384-1.741 13.449-9.586 13.449h-42.713c-7.822 0-16.316-6.064-18.87-13.449l-94.118-271.784c-2.549-7.39 1.752-13.443 9.603-13.443h43.122zM1024.011 448c0-282.752-229.27-512-512.011-512-7.805 0-15.389 0.836-23.12 1.161l103.237 298.277c2.583 7.396 11.042 13.443 18.893 13.443h71.669c111.276 0 112.294 36.893 124.002 70.782 27.404 79.503 74.645 216.476 83.832 243.288 13.079 38.241 17.403 98.379-79.839 98.379h-170.674c-7.822 0-16.31-6.053-18.899-13.449l-240.307-694.268c-219.076 58.027-380.796 257.084-380.796 494.387 0 226.392 147.111 418.11 350.838 485.74l-232.399-671.399c-2.588-7.401 1.729-13.46 9.563-13.46h85.317c7.851 0 16.327 6.059 18.904 13.46l113.773 328.662c2.554 7.384 11.020 13.449 18.847 13.449h42.184c7.834 0 12.135-6.064 9.58-13.449l-113.313-328.662c-2.532-7.401 1.769-13.46 9.592-13.46h85.346c7.822 0 16.305 6.059 18.853 13.46 0 0 79.509 230.522 103.516 300.223 24.036 69.69 4.733 98.766-79.162 98.766h-56.89c-7.822 0-12.117 6.059-9.546 13.437l98.009 283.253c12.908 0.978 25.816 1.98 38.986 1.98 282.741 0 512.011-229.248 512.011-512v0z" />
<glyph unicode="&#xea4f;" glyph-name="instagram" d="M738.915 956.706c51.95-2.371 87.861-10.005 121.096-22.921 33.249-12.922 58.43-29.302 83.453-54.326 25.020-25.023 41.399-50.199 54.326-83.454 12.914-33.238 20.546-69.144 22.917-121.093 2.937-64.426 3.294-87.135 3.294-226.912 0-139.779-0.357-162.489-3.294-226.915-2.371-51.947-10.003-87.854-22.921-121.102-12.924-33.245-29.304-58.424-54.321-83.441-25.021-25.024-50.203-41.406-83.458-54.33-33.244-12.916-69.147-20.548-121.090-22.917-64.411-2.939-87.115-3.296-226.915-3.296s-162.504 0.357-226.913 3.296c-51.945 2.369-87.851 10.001-121.101 22.919-33.248 12.923-58.429 29.304-83.447 54.325-25.022 25.022-41.404 50.203-54.328 83.454-12.914 33.238-20.546 69.144-22.917 121.090-2.938 64.386-3.294 87.077-3.294 226.916 0 139.837 0.356 162.529 3.294 226.915 2.371 51.945 10.003 87.852 22.919 121.095 12.921 33.246 29.302 58.425 54.324 83.446 25.021 25.023 50.201 41.405 83.451 54.328 33.233 12.916 69.147 20.55 121.096 22.921 64.389 2.938 87.078 3.294 226.917 3.294s162.528-0.356 226.915-3.294zM512 846.222c-138.257 0-159.402-0.332-221.73-3.176-39.554-1.805-63.304-6.854-85.066-15.311-18.581-7.222-30.388-14.903-44.213-28.729-13.827-13.827-21.509-25.634-28.727-44.206-8.459-21.772-13.506-45.517-15.311-85.071-2.844-62.326-3.176-83.472-3.176-221.728 0-138.258 0.332-159.405 3.176-221.73 1.805-39.554 6.852-63.299 15.309-85.065 7.221-18.578 14.903-30.387 28.731-44.215 13.822-13.824 25.629-21.505 44.204-28.724 21.777-8.461 45.52-13.508 85.074-15.312 62.352-2.845 83.51-3.178 221.728-3.178s159.377 0.333 221.73 3.178c39.551 1.803 63.292 6.85 85.065 15.31 18.582 7.222 30.389 14.902 44.213 28.728 13.824 13.824 21.506 25.633 28.727 44.206 8.459 21.772 13.506 45.518 15.311 85.071 2.843 62.366 3.176 83.531 3.176 221.73 0 138.197-0.333 159.362-3.176 221.728-1.805 39.554-6.852 63.299-15.308 85.063-7.224 18.583-14.905 30.391-28.73 44.217-13.824 13.824-25.631 21.505-44.214 28.726-21.764 8.459-45.511 13.506-85.066 15.312-62.326 2.844-83.471 3.176-221.728 3.176zM512 182.519c-146.621 0-265.481 118.86-265.481 265.481s118.86 265.481 265.481 265.481c146.621 0 265.481-118.86 265.481-265.481s-118.86-265.481-265.481-265.481zM512 296.296c83.784 0 151.704 67.92 151.704 151.704s-67.92 151.704-151.704 151.704c-83.784 0-151.704-67.92-151.704-151.704s67.92-151.704 151.704-151.704zM777.481 656.593c-31.419 0-56.889 25.47-56.889 56.889s25.47 56.889 56.889 56.889c31.419 0 56.889-25.47 56.889-56.889s-25.47-56.889-56.889-56.889z" />
<glyph unicode="&#xea53;" glyph-name="internet-explorer" d="M1023.981 433.639c0 80.949-20.929 156.999-57.63 223.083 156.436 354.048-167.624 302.191-185.666 298.661-68.655-13.434-132.172-35.003-190.761-62.344-8.64 0.487-17.332 0.754-26.091 0.754-218.656 0-401.684-152.51-448.527-356.959 115.246 129.291 195.899 181.459 244.198 202.335-7.709-6.889-15.257-13.854-22.68-20.872-2.471-2.333-4.852-4.699-7.29-7.046-4.895-4.709-9.78-9.422-14.551-14.179-2.839-2.829-5.601-5.682-8.396-8.53-4.232-4.308-8.454-8.611-12.585-12.943-2.934-3.077-5.796-6.164-8.678-9.246-3.86-4.131-7.695-8.268-11.459-12.418-2.924-3.225-5.801-6.45-8.673-9.685-3.568-4.017-7.104-8.034-10.591-12.060-2.891-3.339-5.758-6.679-8.592-10.023-3.306-3.902-6.569-7.805-9.799-11.707-2.858-3.454-5.706-6.903-8.501-10.352-3.025-3.731-5.982-7.457-8.936-11.178-2.862-3.607-5.725-7.209-8.52-10.81-2.662-3.43-5.248-6.846-7.853-10.267-2.939-3.864-5.901-7.729-8.764-11.574-2.047-2.753-4.012-5.477-6.021-8.22-18.181-24.808-34.793-49.138-49.797-72.51-0.038-0.057-0.076-0.115-0.11-0.172-3.95-6.154-7.762-12.218-11.497-18.229-0.2-0.324-0.41-0.654-0.611-0.983-3.74-6.035-7.352-11.965-10.872-17.833-0.124-0.205-0.253-0.415-0.377-0.62-9.465-15.796-18.243-31.024-26.148-45.35-41.443-75.105-61.618-127.578-62.491-130.693-130.87-467.873 277.579-270.294 334.574-240.801 61.37-30.318 130.46-47.383 203.547-47.383 200.083 0 370.317 127.717 433.681 306.069h-241.779c-35.776-60.44-104.65-101.378-183.777-101.378-115.933 0-209.911 87.838-209.911 196.195h658.167c2.495 19.407 3.788 39.187 3.788 59.266h-0.019zM938.022 886.455c39.625-26.745 71.408-68.746 16.826-210.193-52.349 84.189-131.109 150.23-224.719 186.53 42.583 20.567 148.040 64.066 207.893 23.663v0zM95.897 21.813c-32.274 33.099-37.98 113.715 33.238 260.614 35.942-103.338 107.665-189.927 200.37-244.88-46.104-25.375-168.501-82.509-233.607-15.734v0zM361.010 500.219c3.678 105.313 95.333 189.636 207.946 189.636 112.608 0 204.267-84.322 207.946-189.636h-415.891z" />
</font>
</defs>
</svg>
